999
dxfrw 0.5.11
0
SECTION
2
HEADER
9
$ACADVER
1
AC1021
9
$HANDSEED
5
20000
9
$DWGCODEPAGE
3
ANSI_1252
9
$INSBASE
10
0
20
0
30
0
9
$EXTMIN
10
10000000000
20
10000000000
30
0
9
$EXTMAX
10
-10000000000
20
-10000000000
30
0
9
$LIMMIN
10
0
20
0
9
$LIMMAX
10
420
20
297
9
$ORTHOMODE
70
0
9
$LTSCALE
40
1
9
$TEXTSTYLE
7
STANDARD
9
$CLAYER
8
axes
9
$DIMASZ
40
2.5
9
$DIMLFAC
40
1
9
$DIMSCALE
40
1
9
$DIMEXO
40
0.625
9
$DIMEXE
40
1.25
9
$DIMTXT
40
10
9
$DIMTSZ
40
0
9
$DIMAUNIT
70
0
9
$DIMADEC
70
2
9
$DIMLUNIT
70
2
9
$DIMSTYLE
2
STANDARD
9
$DIMGAP
40
0.625
9
$DIMTIH
70
0
9
$LUNITS
70
2
9
$LUPREC
70
4
9
$AUNITS
70
0
9
$AUPREC
70
2
9
$SPLINESEGS
70
8
9
$GRIDMODE
70
1
9
$SNAPSTYLE
70
0
9
$GRIDUNIT
10
0
20
0
9
$PINSBASE
10
8.10429167012
20
8.30125725401
30
0
9
$PLIMMIN
10
0
20
0
9
$PLIMMAX
10
1189
20
841
9
$INSUNITS
70
0
9
$PSVPSCALE
40
1.1
0
ENDSEC
0
SECTION
2
CLASSES
0
ENDSEC
0
SECTION
2
TABLES
0
TABLE
2
VPORT
5
8
330
0
100
AcDbSymbolTable
70
1
0
VPORT
5
31
330
2
100
AcDbSymbolTableRecord
100
AcDbViewportTableRecord
2
*ACTIVE
70
0
10
0
20
0
11
1
21
1
12
506.654163985
22
245.609833137
13
0
23
0
14
10
24
10
15
10
25
10
16
0
26
0
36
1
17
0
27
0
37
0
40
676.433638804
41
1.86706349206
42
50
43
0
44
0
50
0
51
0
71
0
72
100
73
1
74
3
75
0
76
1
77
0
78
0
281
0
65
1
110
0
120
0
130
0
111
1
121
0
131
0
112
0
122
1
132
0
79
0
146
0
348
10020
60
7
61
5
292
1
282
1
141
0
142
0
63
250
421
3358443
0
ENDTAB
0
TABLE
2
LTYPE
5
5
330
0
100
AcDbSymbolTable
70
4
0
LTYPE
5
14
330
5
100
AcDbSymbolTableRecord
100
AcDbLinetypeTableRecord
2
ByBlock
70
0
3

72
65
73
0
40
0
0
LTYPE
5
15
330
5
100
AcDbSymbolTableRecord
100
AcDbLinetypeTableRecord
2
ByLayer
70
0
3

72
65
73
0
40
0
0
LTYPE
5
16
330
5
100
AcDbSymbolTableRecord
100
AcDbLinetypeTableRecord
2
Continuous
70
0
3
Solid line
72
65
73
0
40
0
0
LTYPE
5
32
330
5
100
AcDbSymbolTableRecord
100
AcDbLinetypeTableRecord
2
DOT
70
0
3
Dot . . . . . . . . . . . . . . . . . . . . . .
72
65
73
2
40
6.35
49
0
74
0
49
-6.35
74
0
0
LTYPE
5
33
330
5
100
AcDbSymbolTableRecord
100
AcDbLinetypeTableRecord
2
DOT2
70
0
3
Dot (.5x) .....................................
72
65
73
2
40
3.175
49
0
74
0
49
-3.175
74
0
0
LTYPE
5
34
330
5
100
AcDbSymbolTableRecord
100
AcDbLinetypeTableRecord
2
DOTX2
70
0
3
Dot (2x) .  .  .  .  .  .  .  .  .  .  .  .  .
72
65
73
2
40
12.7
49
0
74
0
49
-12.7
74
0
0
LTYPE
5
35
330
5
100
AcDbSymbolTableRecord
100
AcDbLinetypeTableRecord
2
DASHED
70
0
3
Dot . . . . . . . . . . . . . . . . . . . . . .
72
65
73
2
40
19.05
49
12.7
74
0
49
-6.35
74
0
0
LTYPE
5
36
330
5
100
AcDbSymbolTableRecord
100
AcDbLinetypeTableRecord
2
DASHED2
70
0
3
Dashed (.5x) _ _ _ _ _ _ _ _ _ _ _ _ _ _ _ _ _
72
65
73
2
40
9.525
49
6.35
74
0
49
-3.175
74
0
0
LTYPE
5
37
330
5
100
AcDbSymbolTableRecord
100
AcDbLinetypeTableRecord
2
DASHEDX2
70
0
3
Dashed (2x) ____  ____  ____  ____  ____  ___
72
65
73
2
40
38.1
49
25.4
74
0
49
-12.7
74
0
0
LTYPE
5
38
330
5
100
AcDbSymbolTableRecord
100
AcDbLinetypeTableRecord
2
DASHDOT
70
0
3
Dash dot __ . __ . __ . __ . __ . __ . __ . __
72
65
73
4
40
25.4
49
12.7
74
0
49
-6.35
74
0
49
0
74
0
49
-6.35
74
0
0
LTYPE
5
39
330
5
100
AcDbSymbolTableRecord
100
AcDbLinetypeTableRecord
2
DASHDOT2
70
0
3
Dash dot (.5x) _._._._._._._._._._._._._._._.
72
65
73
4
40
12.7
49
6.35
74
0
49
-3.175
74
0
49
0
74
0
49
-3.175
74
0
0
LTYPE
5
3A
330
5
100
AcDbSymbolTableRecord
100
AcDbLinetypeTableRecord
2
DASHDOTX2
70
0
3
Dash dot (2x) ____  .  ____  .  ____  .  ___
72
65
73
4
40
50.8
49
25.4
74
0
49
-12.7
74
0
49
0
74
0
49
-12.7
74
0
0
LTYPE
5
3B
330
5
100
AcDbSymbolTableRecord
100
AcDbLinetypeTableRecord
2
DIVIDE
70
0
3
Divide ____ . . ____ . . ____ . . ____ . . ____
72
65
73
6
40
31.75
49
12.7
74
0
49
-6.35
74
0
49
0
74
0
49
-6.35
74
0
49
0
74
0
49
-6.35
74
0
0
LTYPE
5
3C
330
5
100
AcDbSymbolTableRecord
100
AcDbLinetypeTableRecord
2
DIVIDE2
70
0
3
Divide (.5x) __..__..__..__..__..__..__..__.._
72
65
73
6
40
15.875
49
6.35
74
0
49
-3.175
74
0
49
0
74
0
49
-3.175
74
0
49
0
74
0
49
-3.175
74
0
0
LTYPE
5
3D
330
5
100
AcDbSymbolTableRecord
100
AcDbLinetypeTableRecord
2
DIVIDEX2
70
0
3
Divide (2x) ________  .  .  ________  .  .  _
72
65
73
6
40
63.5
49
25.4
74
0
49
-12.7
74
0
49
0
74
0
49
-12.7
74
0
49
0
74
0
49
-12.7
74
0
0
LTYPE
5
3E
330
5
100
AcDbSymbolTableRecord
100
AcDbLinetypeTableRecord
2
BORDER
70
0
3
Border __ __ . __ __ . __ __ . __ __ . __ __ .
72
65
73
6
40
44.45
49
12.7
74
0
49
-6.35
74
0
49
12.7
74
0
49
-6.35
74
0
49
0
74
0
49
-6.35
74
0
0
LTYPE
5
3F
330
5
100
AcDbSymbolTableRecord
100
AcDbLinetypeTableRecord
2
BORDER2
70
0
3
Border (.5x) __.__.__.__.__.__.__.__.__.__.__.
72
65
73
6
40
22.225
49
6.35
74
0
49
-3.175
74
0
49
6.35
74
0
49
-3.175
74
0
49
0
74
0
49
-3.175
74
0
0
LTYPE
5
40
330
5
100
AcDbSymbolTableRecord
100
AcDbLinetypeTableRecord
2
BORDERX2
70
0
3
Border (2x) ____  ____  .  ____  ____  .  ___
72
65
73
6
40
88.9
49
25.4
74
0
49
-12.7
74
0
49
25.4
74
0
49
-12.7
74
0
49
0
74
0
49
-12.7
74
0
0
LTYPE
5
41
330
5
100
AcDbSymbolTableRecord
100
AcDbLinetypeTableRecord
2
CENTER
70
0
3
Center ____ _ ____ _ ____ _ ____ _ ____ _ ____
72
65
73
4
40
50.8
49
31.75
74
0
49
-6.35
74
0
49
6.35
74
0
49
-6.35
74
0
0
LTYPE
5
42
330
5
100
AcDbSymbolTableRecord
100
AcDbLinetypeTableRecord
2
CENTER2
70
0
3
Center (.5x) ___ _ ___ _ ___ _ ___ _ ___ _ ___
72
65
73
4
40
28.575
49
19.05
74
0
49
-3.175
74
0
49
3.175
74
0
49
-3.175
74
0
0
LTYPE
5
43
330
5
100
AcDbSymbolTableRecord
100
AcDbLinetypeTableRecord
2
CENTERX2
70
0
3
Center (2x) ________  __  ________  __  _____
72
65
73
4
40
101.6
49
63.5
74
0
49
-12.7
74
0
49
12.7
74
0
49
-12.7
74
0
0
ENDTAB
0
TABLE
2
LAYER
5
2
330
0
100
AcDbSymbolTable
70
1
0
LAYER
5
10
330
2
100
AcDbSymbolTableRecord
100
AcDbLayerTableRecord
2
0
70
0
62
7
6
CONTINUOUS
370
0
390
F
0
LAYER
5
44
330
2
100
AcDbSymbolTableRecord
100
AcDbLayerTableRecord
2
Profils-T
70
0
62
7
6
CONTINUOUS
370
0
390
F
0
LAYER
5
45
330
2
100
AcDbSymbolTableRecord
100
AcDbLayerTableRecord
2
Top-fix-vues-orthogonales
70
1
62
7
6
CONTINUOUS
370
0
390
F
0
LAYER
5
46
330
2
100
AcDbSymbolTableRecord
100
AcDbLayerTableRecord
2
axes
70
0
62
7
6
CONTINUOUS
370
0
390
F
0
LAYER
5
47
330
2
100
AcDbSymbolTableRecord
100
AcDbLayerTableRecord
2
cotes
70
1
62
8
6
CONTINUOUS
370
0
390
F
0
LAYER
5
48
330
2
100
AcDbSymbolTableRecord
100
AcDbLayerTableRecord
2
foot2
70
1
62
7
6
CONTINUOUS
370
0
390
F
0
LAYER
5
49
330
2
100
AcDbSymbolTableRecord
100
AcDbLayerTableRecord
2
plateau
70
0
62
7
6
CONTINUOUS
370
0
390
F
0
LAYER
5
4A
330
2
100
AcDbSymbolTableRecord
100
AcDbLayerTableRecord
2
plateau-haut
70
1
62
7
6
CONTINUOUS
370
0
390
F
0
LAYER
5
4B
330
2
100
AcDbSymbolTableRecord
100
AcDbLayerTableRecord
2
top2
70
1
62
7
6
CONTINUOUS
370
0
390
F
0
ENDTAB
0
TABLE
2
STYLE
5
3
330
0
100
AcDbSymbolTable
70
3
0
STYLE
5
4C
330
2
100
AcDbSymbolTableRecord
100
AcDbTextStyleTableRecord
2
standard
70
0
40
0
41
1
50
0
71
0
42
1
3
standard
4

0
ENDTAB
0
TABLE
2
VIEW
5
6
330
0
100
AcDbSymbolTable
70
0
0
ENDTAB
0
TABLE
2
UCS
5
7
330
0
100
AcDbSymbolTable
70
0
0
ENDTAB
0
TABLE
2
APPID
5
9
330
0
100
AcDbSymbolTable
70
1
0
APPID
5
12
330
9
100
AcDbSymbolTableRecord
100
AcDbRegAppTableRecord
2
ACAD
70
0
0
ENDTAB
0
TABLE
2
DIMSTYLE
5
A
330
0
100
AcDbSymbolTable
70
1
100
AcDbDimStyleTable
71
1
0
DIMSTYLE
105
4D
330
A
100
AcDbSymbolTableRecord
100
AcDbDimStyleTableRecord
2
Standard
70
0
40
1
41
2.5
42
0.625
43
0.38
44
1.25
45
0
46
0
47
0
48
0
140
10
141
0.09
142
0
143
25.4
144
1
145
0
146
1
147
0.625
148
0
71
0
72
0
73
0
74
1
75
0
76
0
77
0
78
0
79
0
170
0
171
2
172
0
173
0
174
0
175
0
176
0
177
0
178
0
179
0
271
4
272
4
273
2
274
2
275
0
276
0
277
2
278
46
279
0
280
0
281
0
282
0
283
1
284
0
285
0
286
0
288
0
289
3
340
Standard
341

371
-2
372
-2
0
ENDTAB
0
TABLE
2
BLOCK_RECORD
5
1
330
0
100
AcDbSymbolTable
70
2
0
BLOCK_RECORD
5
1F
330
1
100
AcDbSymbolTableRecord
100
AcDbBlockTableRecord
2
*Model_Space
70
0
280
1
281
0
0
BLOCK_RECORD
5
1E
330
1
100
AcDbSymbolTableRecord
100
AcDbBlockTableRecord
2
*Paper_Space
70
0
280
1
281
0
0
BLOCK_RECORD
5
4E
330
1
100
AcDbSymbolTableRecord
100
AcDbBlockTableRecord
2
*D1
70
0
280
1
281
0
0
BLOCK_RECORD
5
51
330
1
100
AcDbSymbolTableRecord
100
AcDbBlockTableRecord
2
*D2
70
0
280
1
281
0
0
BLOCK_RECORD
5
54
330
1
100
AcDbSymbolTableRecord
100
AcDbBlockTableRecord
2
a3
70
0
280
1
281
0
0
BLOCK_RECORD
5
57
330
1
100
AcDbSymbolTableRecord
100
AcDbBlockTableRecord
2
a3-0
70
0
280
1
281
0
0
BLOCK_RECORD
5
5A
330
1
100
AcDbSymbolTableRecord
100
AcDbBlockTableRecord
2
foot-cotes
70
0
280
1
281
0
0
BLOCK_RECORD
5
5D
330
1
100
AcDbSymbolTableRecord
100
AcDbBlockTableRecord
2
all-test-0
70
0
280
1
281
0
0
BLOCK_RECORD
5
60
330
1
100
AcDbSymbolTableRecord
100
AcDbBlockTableRecord
2
a3-1
70
0
280
1
281
0
0
BLOCK_RECORD
5
63
330
1
100
AcDbSymbolTableRecord
100
AcDbBlockTableRecord
2
a3-0-0
70
0
280
1
281
0
0
BLOCK_RECORD
5
66
330
1
100
AcDbSymbolTableRecord
100
AcDbBlockTableRecord
2
foot-cotes-0
70
0
280
1
281
0
0
BLOCK_RECORD
5
69
330
1
100
AcDbSymbolTableRecord
100
AcDbBlockTableRecord
2
all-test-1
70
0
280
1
281
0
0
ENDTAB
0
ENDSEC
0
SECTION
2
BLOCKS
0
BLOCK
5
20
330
1F
100
AcDbEntity
8
0
100
AcDbBlockBegin
2
*Model_Space
70
0
10
0
20
0
30
0
3
*Model_Space
1

0
ENDBLK
5
21
330
1F
100
AcDbEntity
8
0
100
AcDbBlockEnd
0
BLOCK
5
1C
330
1B
100
AcDbEntity
8
0
100
AcDbBlockBegin
2
*Paper_Space
70
0
10
0
20
0
30
0
3
*Paper_Space
1

0
ENDBLK
5
1D
330
1F
100
AcDbEntity
8
0
100
AcDbBlockEnd
0
BLOCK
5
4F
330
4E
100
AcDbEntity
8
0
100
AcDbBlockBegin
2
*D1
70
1
10
0
20
0
3
*D1
1

0
LINE
5
6C
100
AcDbEntity
8
cotes
6
CONTINUOUS
62
7
370
0
100
AcDbLine
10
0.625
20
2.30926389122e-14
11
1.25
21
2.30926389122e-14
0
LINE
5
6D
100
AcDbEntity
8
cotes
6
CONTINUOUS
62
7
370
0
100
AcDbLine
10
350.625
20
606.217782649
11
351.25
21
606.217782649
0
LINE
5
6E
100
AcDbEntity
8
cotes
6
CONTINUOUS
62
7
370
0
100
AcDbLine
10
5.68434188608e-14
20
2.30926389122e-14
11
350
21
606.217782649
0
SOLID
5
6F
100
AcDbEntity
8
cotes
6
CONTINUOUS
62
7
370
0
100
AcDbTrace
10
5.68434188608e-14
20
2.30926389122e-14
30
0
11
0.889486911163
21
2.37320583835
31
0
12
1.61051308884
22
1.95692118057
32
0
13
1.61051308884
23
1.95692118057
33
0
0
SOLID
5
70
100
AcDbEntity
8
cotes
6
CONTINUOUS
62
7
370
0
100
AcDbTrace
10
350
20
606.217782649
30
0
11
349.110513089
21
603.844576811
31
0
12
348.389486911
22
604.260861468
32
0
13
348.389486911
23
604.260861468
33
0
0
MTEXT
5
71
100
AcDbEntity
8
cotes
6
CONTINUOUS
62
7
370
0
100
AcDbMText
10
170.128607104
20
305.921391325
30
0
40
10
41
20
71
5
72
1
1
700
7
standard
210
0
220
0
230
1
50
60
73
2
44
1
0
ENDBLK
5
50
330
4E
100
AcDbEntity
8
0
100
AcDbBlockEnd
0
BLOCK
5
52
330
51
100
AcDbEntity
8
0
100
AcDbBlockBegin
2
*D2
70
1
10
0
20
0
3
*D2
1

0
LINE
5
72
100
AcDbEntity
8
cotes
6
CONTINUOUS
62
7
370
0
100
AcDbLine
10
350
20
202.072594216
11
779.145177967
21
202.072594216
0
SOLID
5
73
100
AcDbEntity
8
cotes
6
CONTINUOUS
62
7
370
0
100
AcDbTrace
10
350
20
202.072594216
30
0
11
352.5
21
202.488878874
31
0
12
352.5
22
201.656309558
32
0
13
352.5
23
201.656309558
33
0
0
SOLID
5
74
100
AcDbEntity
8
cotes
6
CONTINUOUS
62
7
370
0
100
AcDbTrace
10
779.145177967
20
202.072594216
30
0
11
776.645177967
21
201.656309558
31
0
12
776.645177967
22
202.488878874
32
0
13
776.645177967
23
202.488878874
33
0
0
MTEXT
5
75
100
AcDbEntity
8
cotes
6
CONTINUOUS
62
7
370
0
100
AcDbMText
10
564.572588984
20
207.697594216
30
0
40
10
41
54.4444444444
71
5
72
1
1
429.1452
7
standard
210
0
220
0
230
1
50
0
73
2
44
1
0
LINE
5
76
100
AcDbEntity
8
cotes
6
CONTINUOUS
62
7
370
0
100
AcDbLine
10
350
20
202.697594216
11
350
21
203.322594216
0
LINE
5
77
100
AcDbEntity
8
cotes
6
CONTINUOUS
62
7
370
0
100
AcDbLine
10
779.145177967
20
202.697594216
11
779.145177967
21
203.322594216
0
ENDBLK
5
53
330
51
100
AcDbEntity
8
0
100
AcDbBlockEnd
0
BLOCK
5
55
330
54
100
AcDbEntity
8
0
100
AcDbBlockBegin
2
a3
70
0
10
0
20
0
3
a3
1

0
ENDBLK
5
56
330
54
100
AcDbEntity
8
0
100
AcDbBlockEnd
0
BLOCK
5
58
330
57
100
AcDbEntity
8
0
100
AcDbBlockBegin
2
a3-0
70
0
10
0
20
0
3
a3-0
1

0
ENDBLK
5
59
330
57
100
AcDbEntity
8
0
100
AcDbBlockEnd
0
BLOCK
5
5B
330
5A
100
AcDbEntity
8
0
100
AcDbBlockBegin
2
foot-cotes
70
0
10
0
20
0
3
foot-cotes
1

0
ENDBLK
5
5C
330
5A
100
AcDbEntity
8
0
100
AcDbBlockEnd
0
BLOCK
5
5E
330
5D
100
AcDbEntity
8
0
100
AcDbBlockBegin
2
all-test-0
70
0
10
0
20
0
3
all-test-0
1

0
LINE
5
78
100
AcDbEntity
8
foot2
6
ByLayer
62
256
370
-1
100
AcDbLine
10
-32.1550681671
20
-10.3745536972
11
-41.4050681671
21
-28.8745536972
0
LINE
5
79
100
AcDbEntity
8
foot2
6
ByLayer
62
256
370
-1
100
AcDbLine
10
-41.4050681671
20
-28.8745536972
11
-53.1550681671
21
-28.8745536972
0
LINE
5
7A
100
AcDbEntity
8
foot2
6
ByLayer
62
256
370
-1
100
AcDbLine
10
-53.1550681671
20
-28.8745536972
11
-62.4050681671
21
-10.3745536972
0
LINE
5
7B
100
AcDbEntity
8
foot2
6
ByLayer
62
256
370
-1
100
AcDbLine
10
-62.4050681671
20
-10.3745536972
11
-62.4050681671
21
1.37544630277
0
LINE
5
7C
100
AcDbEntity
8
foot2
6
ByLayer
62
256
370
-1
100
AcDbLine
10
-32.1550681671
20
1.37544630277
11
-32.1550681671
21
-10.3745536972
0
LINE
5
7D
100
AcDbEntity
8
foot2
6
ByLayer
62
256
370
-1
100
AcDbLine
10
-57.4800681671
20
-3.54955369723
11
-57.4800681671
21
-5.44955369723
0
LINE
5
7E
100
AcDbEntity
8
foot2
6
ByLayer
62
256
370
-1
100
AcDbLine
10
-48.2300681671
20
-5.44955369723
11
-57.4800681671
21
-5.44955369723
0
LINE
5
7F
100
AcDbEntity
8
foot2
6
ByLayer
62
256
370
-1
100
AcDbLine
10
-48.2300681671
20
-23.9495536972
11
-48.2300681671
21
-5.44955369723
0
LINE
5
80
100
AcDbEntity
8
foot2
6
ByLayer
62
256
370
-1
100
AcDbLine
10
-48.2300681671
20
-23.9495536972
11
-46.3300681671
21
-23.9495536972
0
LINE
5
81
100
AcDbEntity
8
foot2
6
ByLayer
62
256
370
-1
100
AcDbLine
10
-46.3300681671
20
-23.9495536972
11
-46.3300681671
21
-5.44955369723
0
LINE
5
82
100
AcDbEntity
8
foot2
6
ByLayer
62
256
370
-1
100
AcDbLine
10
-37.0800681671
20
-3.54955369723
11
-57.4800681671
21
-3.54955369723
0
LINE
5
83
100
AcDbEntity
8
foot2
6
ByLayer
62
256
370
-1
100
AcDbLine
10
-37.0800681671
20
-5.44955369723
11
-37.0800681671
21
-3.54955369723
0
LINE
5
84
100
AcDbEntity
8
foot2
6
ByLayer
62
256
370
-1
100
AcDbLine
10
-37.0800681671
20
-5.44955369723
11
-46.3300681671
21
-5.44955369723
0
LINE
5
85
100
AcDbEntity
8
foot2
6
ByLayer
62
256
370
-1
100
AcDbLine
10
-43.7800681047
20
23.2504462258
11
-43.780068138
21
15.2504462258
0
LINE
5
86
100
AcDbEntity
8
foot2
6
ByLayer
62
256
370
-1
100
AcDbLine
10
-50.7800681047
20
23.250446255
11
-50.780068138
21
15.250446255
0
LINE
5
87
100
AcDbEntity
8
foot2
6
ByLayer
62
256
370
-1
100
AcDbLine
10
-42.7800681005
20
24.2504462217
11
-43.7800681047
21
23.2504462258
0
LINE
5
88
100
AcDbEntity
8
foot2
6
ByLayer
62
256
370
-1
100
AcDbLine
10
-43.780068138
20
15.2504462258
11
-42.7800681421
21
14.2504462217
0
LINE
5
89
100
AcDbEntity
8
foot2
6
ByLayer
62
256
370
-1
100
AcDbLine
10
-50.7800681047
20
23.250446255
11
-51.7800681005
21
24.2504462591
0
LINE
5
8A
100
AcDbEntity
8
foot2
6
ByLayer
62
256
370
-1
100
AcDbLine
10
-50.780068138
20
15.250446255
11
-51.7800681422
21
14.2504462591
0
LINE
5
8B
100
AcDbEntity
8
foot2
6
ByLayer
62
256
370
-1
100
AcDbLine
10
-54.7800680714
20
31.2504462716
11
-51.7800680714
21
31.2504462591
0
LINE
5
8C
100
AcDbEntity
8
foot2
6
ByLayer
62
256
370
-1
100
AcDbLine
10
-42.7800680714
20
31.2504462217
11
-39.7800680714
21
31.2504462092
0
LINE
5
8D
100
AcDbEntity
8
foot2
6
ByLayer
62
256
370
-1
100
AcDbLine
10
-42.7800680714
20
31.2504462217
11
-42.7800681957
21
1.37544630277
0
LINE
5
8E
100
AcDbEntity
8
foot2
6
ByLayer
62
256
370
-1
100
AcDbLine
10
-51.7800680714
20
31.2504462591
11
-51.7800681958
21
1.37544630277
0
LINE
5
8F
100
AcDbEntity
8
foot2
6
ByLayer
62
256
370
-1
100
AcDbLine
10
-51.7800681958
20
1.37544630277
11
-42.7800681957
21
1.37544630277
0
LINE
5
90
100
AcDbEntity
8
foot2
6
ByLayer
62
256
370
-1
100
AcDbLine
10
-39.7800681957
20
1.37544630277
11
-32.1550681671
21
1.37544630277
0
LINE
5
91
100
AcDbEntity
8
foot2
6
ByLayer
62
256
370
-1
100
AcDbLine
10
-62.4050681671
20
1.37544630277
11
-54.7800681958
21
1.37544630277
0
LINE
5
92
100
AcDbEntity
8
foot2
6
ByLayer
62
256
370
-1
100
AcDbLine
10
-53.2300681671
20
-28.8745536972
11
-53.2300681671
21
-10.4495536972
0
LINE
5
93
100
AcDbEntity
8
foot2
6
ByLayer
62
256
370
-1
100
AcDbLine
10
-53.2300681671
20
-10.4495536972
11
-62.4050681671
21
-10.4495536972
0
LINE
5
94
100
AcDbEntity
8
foot2
6
ByLayer
62
256
370
-1
100
AcDbLine
10
-32.1550681671
20
-10.4495536972
11
-41.3300681671
21
-10.4495536972
0
LINE
5
95
100
AcDbEntity
8
foot2
6
ByLayer
62
256
370
-1
100
AcDbLine
10
-41.3300681671
20
-28.8745536972
11
-41.3300681671
21
-10.4495536972
0
LINE
5
96
100
AcDbEntity
8
foot2
6
ByLayer
62
256
370
-1
100
AcDbLine
10
-51.7800680714
20
31.2504462591
11
-42.7800680714
21
31.2504462217
0
LINE
5
97
100
AcDbEntity
8
foot2
6
ByLayer
62
256
370
-1
100
AcDbLine
10
-54.7800680464
20
37.2504462716
11
-54.7800681958
21
1.37544630277
0
LINE
5
98
100
AcDbEntity
8
foot2
6
ByLayer
62
256
370
-1
100
AcDbLine
10
-39.7800680464
20
37.2504462092
11
-54.7800680464
21
37.2504462716
0
LINE
5
99
100
AcDbEntity
8
foot2
6
ByLayer
62
256
370
-1
100
AcDbLine
10
-39.7800680464
20
37.2504462092
11
-39.7800681957
21
1.37544629027
0
CIRCLE
5
9A
100
AcDbEntity
8
foot2
6
ByLayer
62
256
370
-1
100
AcDbCircle
10
-47.2800680589
20
34.2504462404
40
2
0
POINT
5
9B
100
AcDbEntity
8
foot2
6
ByLayer
62
256
370
-1
100
AcDbPoint
10
-57.2800681671
20
-23.7495536972
0
ENDBLK
5
5F
330
5D
100
AcDbEntity
8
0
100
AcDbBlockEnd
0
BLOCK
5
61
330
60
100
AcDbEntity
8
0
100
AcDbBlockBegin
2
a3-1
70
0
10
0
20
0
3
a3-1
1

0
ENDBLK
5
62
330
60
100
AcDbEntity
8
0
100
AcDbBlockEnd
0
BLOCK
5
64
330
63
100
AcDbEntity
8
0
100
AcDbBlockBegin
2
a3-0-0
70
0
10
0
20
0
3
a3-0-0
1

0
ENDBLK
5
65
330
63
100
AcDbEntity
8
0
100
AcDbBlockEnd
0
BLOCK
5
67
330
66
100
AcDbEntity
8
0
100
AcDbBlockBegin
2
foot-cotes-0
70
0
10
0
20
0
3
foot-cotes-0
1

0
ENDBLK
5
68
330
66
100
AcDbEntity
8
0
100
AcDbBlockEnd
0
BLOCK
5
6A
330
69
100
AcDbEntity
8
0
100
AcDbBlockBegin
2
all-test-1
70
0
10
0
20
0
3
all-test-1
1

0
LINE
5
9C
100
AcDbEntity
8
Top-fix-vues-orthogonales
6
ByLayer
62
256
370
-1
100
AcDbLine
10
-111.925
20
-5.125
11
-123.675
21
-5.125
0
LINE
5
9D
100
AcDbEntity
8
Top-fix-vues-orthogonales
6
ByLayer
62
256
370
-1
100
AcDbLine
10
-102.675
20
25.125
11
-102.675
21
13.375
0
LINE
5
9E
100
AcDbEntity
8
Top-fix-vues-orthogonales
6
ByLayer
62
256
370
-1
100
AcDbLine
10
-125.925000146
20
25.125
11
-102.675
21
25.125
0
LINE
5
9F
100
AcDbEntity
8
Top-fix-vues-orthogonales
6
ByLayer
62
256
370
-1
100
AcDbLine
10
-132.925
20
13.375
11
-123.675
21
-5.125
0
LINE
5
A0
100
AcDbEntity
8
Top-fix-vues-orthogonales
6
ByLayer
62
256
370
-1
100
AcDbLine
10
-102.675
20
13.375
11
-111.925
21
-5.125
0
LINE
5
A1
100
AcDbEntity
8
Top-fix-vues-orthogonales
6
ByLayer
62
256
370
-1
100
AcDbLine
10
-127.925
20
20.125
11
-107.675
21
20.125
0
LINE
5
A2
100
AcDbEntity
8
Top-fix-vues-orthogonales
6
ByLayer
62
256
370
-1
100
AcDbLine
10
-116.925
20
18.375
11
-107.675
21
18.375
0
LINE
5
A3
100
AcDbEntity
8
Top-fix-vues-orthogonales
6
ByLayer
62
256
370
-1
100
AcDbLine
10
-127.925
20
18.375
11
-118.675
21
18.375
0
LINE
5
A4
100
AcDbEntity
8
Top-fix-vues-orthogonales
6
ByLayer
62
256
370
-1
100
AcDbLine
10
-116.925
20
-0.125
11
-116.925
21
18.375
0
LINE
5
A5
100
AcDbEntity
8
Top-fix-vues-orthogonales
6
ByLayer
62
256
370
-1
100
AcDbLine
10
-118.675
20
-0.125
11
-118.675
21
18.375
0
LINE
5
A6
100
AcDbEntity
8
Top-fix-vues-orthogonales
6
ByLayer
62
256
370
-1
100
AcDbLine
10
-132.925
20
13.375
11
-123.675
21
13.375
0
LINE
5
A7
100
AcDbEntity
8
Top-fix-vues-orthogonales
6
ByLayer
62
256
370
-1
100
AcDbLine
10
-123.675
20
-5.125
11
-123.675
21
13.375
0
LINE
5
A8
100
AcDbEntity
8
Top-fix-vues-orthogonales
6
ByLayer
62
256
370
-1
100
AcDbLine
10
-111.925
20
13.375
11
-102.675
21
13.375
0
LINE
5
A9
100
AcDbEntity
8
Top-fix-vues-orthogonales
6
ByLayer
62
256
370
-1
100
AcDbLine
10
-127.925
20
20.125
11
-127.925
21
18.375
0
LINE
5
AA
100
AcDbEntity
8
Top-fix-vues-orthogonales
6
ByLayer
62
256
370
-1
100
AcDbLine
10
-107.675
20
20.125
11
-107.675
21
18.375
0
LINE
5
AB
100
AcDbEntity
8
Top-fix-vues-orthogonales
6
ByLayer
62
256
370
-1
100
AcDbLine
10
-118.675
20
-0.125
11
-116.925
21
-0.125
0
LINE
5
AC
100
AcDbEntity
8
Top-fix-vues-orthogonales
6
ByLayer
62
256
370
-1
100
AcDbLine
10
-111.925
20
13.375
11
-111.925
21
-5.125
0
CIRCLE
5
AD
100
AcDbEntity
8
Top-fix-vues-orthogonales
6
ByLayer
62
256
370
-1
100
AcDbCircle
10
-126.53130823
20
7.29582039325
40
2
0
CIRCLE
5
AE
100
AcDbEntity
8
Top-fix-vues-orthogonales
6
ByLayer
62
256
370
-1
100
AcDbCircle
10
-109.06869177
20
7.29582039325
40
2
0
LINE
5
AF
100
AcDbEntity
8
Top-fix-vues-orthogonales
6
ByLayer
62
256
370
-1
100
AcDbLine
10
-132.925
20
13.375
11
-132.925
21
17.4599999008
0
LINE
5
B0
100
AcDbEntity
8
Top-fix-vues-orthogonales
6
ByLayer
62
256
370
-1
100
AcDbLine
10
-130.925000146
20
17.4599999008
11
-132.925
21
17.4599999008
0
LINE
5
B1
100
AcDbEntity
8
Top-fix-vues-orthogonales
6
ByLayer
62
256
370
-1
100
AcDbLine
10
-125.925000146
20
25.125
11
-125.925000146
21
60.2599999008
0
LINE
5
B2
100
AcDbEntity
8
Top-fix-vues-orthogonales
6
ByLayer
62
256
370
-1
100
AcDbLine
10
-122.925000146
20
60.2599999008
11
-122.925000146
21
68.2599999008
0
LINE
5
B3
100
AcDbEntity
8
Top-fix-vues-orthogonales
6
ByLayer
62
256
370
-1
100
AcDbLine
10
-122.925000146
20
68.2599999008
11
-130.925000146
21
68.2599999008
0
LINE
5
B4
100
AcDbEntity
8
Top-fix-vues-orthogonales
6
ByLayer
62
256
370
-1
100
AcDbLine
10
-125.925000146
20
60.2599999008
11
-130.925000146
21
60.2599999008
0
LINE
5
B5
100
AcDbEntity
8
Top-fix-vues-orthogonales
6
ByLayer
62
256
370
-1
100
AcDbLine
10
-122.925000146
20
60.2599999008
11
-125.925000146
21
60.2599999008
0
CIRCLE
5
B6
100
AcDbEntity
8
Top-fix-vues-orthogonales
6
ByLayer
62
256
370
-1
100
AcDbCircle
10
-126.925000146
20
64.2599999008
40
2
0
LINE
5
B7
100
AcDbEntity
8
Top-fix-vues-orthogonales
6
ByLayer
62
256
370
-1
100
AcDbLine
10
-130.925000146
20
17.4599999008
11
-130.925000146
21
68.2599999008
0
ENDBLK
5
6B
330
69
100
AcDbEntity
8
0
100
AcDbBlockEnd
0
ENDSEC
0
SECTION
2
ENTITIES
0
HATCH
5
B8
100
AcDbEntity
8
axes
6
ByLayer
62
256
370
-1
100
AcDbHatch
10
0
20
0
30
0
210
0
220
0
230
1
2
SOLID
70
1
71
0
91
1
92
0
93
8
72
1
10
22.1088929388
20
11.9120578645
11
21.3588929388
21
13.2110959701
72
1
10
21.3588929388
20
13.2110959701
11
37.3803629088
21
22.4610959701
72
1
10
37.3803629088
20
22.4610959701
11
32.7553629088
21
30.4718309551
72
1
10
32.7553629088
20
30.4718309551
11
34.0544010145
21
31.2218309551
72
1
10
34.0544010145
20
31.2218309551
11
44.0544010145
21
13.9013228794
72
1
10
44.0544010145
20
13.9013228794
11
42.7553629088
21
13.1513228794
72
1
10
42.7553629088
20
13.1513228794
11
38.1303629088
21
21.1620578644
72
1
10
38.1303629088
20
21.1620578644
11
22.1088929388
21
11.9120578645
97
0
75
0
76
1
98
0
0
HATCH
5
B9
100
AcDbEntity
8
axes
6
ByLayer
62
256
370
-1
100
AcDbHatch
10
0
20
0
30
0
210
0
220
0
230
1
2
SOLID
70
1
71
0
91
1
92
0
93
8
72
1
10
375.808210512
20
624.36350825
11
374.308210512
21
624.36350825
72
1
10
374.308210512
20
624.36350825
11
374.308210512
21
605.86350825
72
1
10
374.308210512
20
605.86350825
11
365.058210512
21
605.86350825
72
1
10
365.058210512
20
605.86350825
11
365.058210512
21
604.36350825
72
1
10
365.058210512
20
604.36350825
11
385.058210512
21
604.36350825
72
1
10
385.058210512
20
604.36350825
11
385.058210512
21
605.86350825
72
1
10
385.058210512
20
605.86350825
11
375.808210512
21
605.86350825
72
1
10
375.808210512
20
605.86350825
11
375.808210512
21
624.36350825
97
0
75
0
76
1
98
0
0
HATCH
5
BA
100
AcDbEntity
8
axes
6
ByLayer
62
256
370
-1
100
AcDbHatch
10
0
20
0
30
0
210
0
220
0
230
1
2
SOLID
70
1
71
0
91
1
92
0
93
8
72
1
10
727.822342275
20
11.8766067709
11
728.572342275
21
13.1756448765
72
1
10
728.572342275
20
13.1756448765
11
712.550872305
21
22.4256448765
72
1
10
712.550872305
20
22.4256448765
11
717.175872305
21
30.4363798615
72
1
10
717.175872305
20
30.4363798615
11
715.876834199
21
31.1863798615
72
1
10
715.876834199
20
31.1863798615
11
705.876834199
21
13.8658717858
72
1
10
705.876834199
20
13.8658717858
11
707.175872305
21
13.1158717858
72
1
10
707.175872305
20
13.1158717858
11
711.800872305
21
21.1266067708
72
1
10
711.800872305
20
21.1266067708
11
727.822342275
21
11.8766067709
97
0
75
0
76
1
98
0
0
DIMENSION
5
BB
100
AcDbEntity
8
cotes
6
ByLayer
62
256
370
-1
100
AcDbDimension
2
*D1
10
350
20
606.217782649
30
0
11
170.128607104
21
305.921391325
31
0
70
33
71
5
72
0
3
Standard
53
0
210
0
220
0
230
1
100
AcDbAlignedDimension
13
5.68434188608e-14
23
2.30926389122e-14
33
0
14
350
24
606.217782649
34
0
0
DIMENSION
5
BC
100
AcDbEntity
8
cotes
6
ByLayer
62
256
370
-1
100
AcDbDimension
2
*D2
10
779.145177967
20
202.072594216
30
0
11
564.572588984
21
207.697594216
31
0
70
32
71
5
72
0
3
Standard
53
0
210
0
220
0
230
1
100
AcDbAlignedDimension
13
350
23
202.072594216
33
0
14
779.145177967
24
202.072594216
34
0
100
AcDbRotatedDimension
0
LINE
5
BD
100
AcDbEntity
8
plateau
6
ByLayer
62
256
370
-1
100
AcDbLine
10
0
20
0
11
750
21
0
0
LINE
5
BE
100
AcDbEntity
8
plateau
6
ByLayer
62
256
370
-1
100
AcDbLine
10
375
20
649.519052838
11
750
21
0
0
LINE
5
BF
100
AcDbEntity
8
plateau
6
ByLayer
62
256
370
-1
100
AcDbLine
10
375
20
649.519052838
11
0
21
0
0
INSERT
5
C0
100
AcDbEntity
8
foot2
6
ByLayer
62
256
370
-1
100
AcDbBlockReference
2
all-test-0
10
731.313428983
20
65.383016974
30
0
41
1
42
1
43
0
50
60
70
1
71
1
44
0
45
0
0
INSERT
5
C1
100
AcDbEntity
8
foot2
6
ByLayer
62
256
370
-1
100
AcDbBlockReference
2
all-test-0
10
65.966639184
20
-16.5084632768
30
0
41
1
42
1
43
0
50
300
70
1
71
1
44
0
45
0
0
INSERT
5
C2
100
AcDbEntity
8
foot2
6
ByLayer
62
256
370
-1
100
AcDbBlockReference
2
all-test-0
10
327.719931833
20
600.644499141
30
0
41
1
42
1
43
0
50
180
70
1
71
1
44
0
45
0
0
LINE
5
C3
100
AcDbEntity
8
plateau-haut
6
ByLayer
62
256
370
-1
100
AcDbLine
10
319.340866699
20
751.193247646
11
1069.3408667
21
751.193247646
0
LINE
5
C4
100
AcDbEntity
8
plateau-haut
6
ByLayer
62
256
370
-1
100
AcDbLine
10
694.340866699
20
101.674194807
11
1069.3408667
21
751.193247646
0
LINE
5
C5
100
AcDbEntity
8
plateau-haut
6
ByLayer
62
256
370
-1
100
AcDbLine
10
694.340866699
20
101.674194807
11
319.340866699
21
751.193247646
0
INSERT
5
C6
100
AcDbEntity
8
top2
6
ByLayer
62
256
370
-1
100
AcDbBlockReference
2
all-test-1
10
812.140866699
20
126.799194807
30
0
41
1
42
1
43
0
50
0
70
1
71
1
44
0
45
0
0
MTEXT
5
C7
100
AcDbEntity
8
top2
6
ByLayer
62
256
370
-1
100
AcDbMText
10
0
20
750.725328028
30
0
40
6
41
273.333333333
71
1
72
1
3
Reprap Jeanne\P-----------------------------------------------------------\PGuide pour la découpe des plateaux et le placement \Pdes supports\P\Pgithub https://github.com/gnieark/reprapJeanne\Phackespace Jeanned'hack: https://wiki.jeannedhack.org/\P
1
\PBy \P* Gnieark https://blog-du-grouik.tinad.fr\P* TranKILLoman\P* Thimoth\P\Pscale 1:1 AO
7
standard
210
0
220
0
230
1
50
0
73
2
44
1
0
LINE
5
C8
100
AcDbEntity
8
top2
6
ByLayer
62
256
370
-1
100
AcDbLine
10
694.3408667
20
751.193247646
11
1069.3408667
21
751.193247646
0
INSERT
5
C9
100
AcDbEntity
8
top2
6
ByLayer
62
256
370
-1
100
AcDbBlockReference
2
all-test-1
10
988.68197843
20
840.648540212
30
0
41
1
42
1
43
0
50
120
70
1
71
1
44
0
45
0
0
INSERT
5
CA
100
AcDbEntity
8
top2
6
ByLayer
62
256
370
-1
100
AcDbBlockReference
2
all-test-1
10
282.199754969
20
636.61295508
30
0
41
1
42
1
43
0
50
240
70
1
71
1
44
0
45
0
0
LINE
5
CB
100
AcDbEntity
8
axes
6
ByLayer
62
256
370
-1
100
AcDbLine
10
22.1088929388
20
11.9120578645
11
21.3588929388
21
13.2110959701
0
LINE
5
CC
100
AcDbEntity
8
axes
6
ByLayer
62
256
370
-1
100
AcDbLine
10
44.0544010145
20
13.9013228794
11
42.7553629088
21
13.1513228794
0
LINE
5
CD
100
AcDbEntity
8
axes
6
ByLayer
62
256
370
-1
100
AcDbLine
10
44.0544010145
20
13.9013228794
11
34.0544010145
21
31.2218309551
0
LINE
5
CE
100
AcDbEntity
8
axes
6
ByLayer
62
256
370
-1
100
AcDbLine
10
34.0544010145
20
31.2218309551
11
32.7553629088
21
30.4718309551
0
LINE
5
CF
100
AcDbEntity
8
axes
6
ByLayer
62
256
370
-1
100
AcDbLine
10
37.3803629088
20
22.4610959701
11
32.7553629088
21
30.4718309551
0
LINE
5
D0
100
AcDbEntity
8
axes
6
ByLayer
62
256
370
-1
100
AcDbLine
10
37.3803629088
20
22.4610959701
11
21.3588929388
21
13.2110959701
0
LINE
5
D1
100
AcDbEntity
8
axes
6
ByLayer
62
256
370
-1
100
AcDbLine
10
42.7553629088
20
13.1513228794
11
38.1303629088
21
21.1620578644
0
LINE
5
D2
100
AcDbEntity
8
axes
6
ByLayer
62
256
370
-1
100
AcDbLine
10
38.1303629088
20
21.1620578644
11
22.1088929388
21
11.9120578645
0
LINE
5
D3
100
AcDbEntity
8
axes
6
ByLayer
62
256
370
-1
100
AcDbLine
10
375.808210512
20
624.36350825
11
374.308210512
21
624.36350825
0
LINE
5
D4
100
AcDbEntity
8
axes
6
ByLayer
62
256
370
-1
100
AcDbLine
10
385.058210512
20
604.36350825
11
385.058210512
21
605.86350825
0
LINE
5
D5
100
AcDbEntity
8
axes
6
ByLayer
62
256
370
-1
100
AcDbLine
10
385.058210512
20
604.36350825
11
365.058210512
21
604.36350825
0
LINE
5
D6
100
AcDbEntity
8
axes
6
ByLayer
62
256
370
-1
100
AcDbLine
10
365.058210512
20
604.36350825
11
365.058210512
21
605.86350825
0
LINE
5
D7
100
AcDbEntity
8
axes
6
ByLayer
62
256
370
-1
100
AcDbLine
10
374.308210512
20
605.86350825
11
365.058210512
21
605.86350825
0
LINE
5
D8
100
AcDbEntity
8
axes
6
ByLayer
62
256
370
-1
100
AcDbLine
10
374.308210512
20
605.86350825
11
374.308210512
21
624.36350825
0
LINE
5
D9
100
AcDbEntity
8
axes
6
ByLayer
62
256
370
-1
100
AcDbLine
10
385.058210512
20
605.86350825
11
375.808210512
21
605.86350825
0
LINE
5
DA
100
AcDbEntity
8
axes
6
ByLayer
62
256
370
-1
100
AcDbLine
10
375.808210512
20
605.86350825
11
375.808210512
21
624.36350825
0
LINE
5
DB
100
AcDbEntity
8
axes
6
ByLayer
62
256
370
-1
100
AcDbLine
10
727.822342275
20
11.8766067709
11
728.572342275
21
13.1756448765
0
LINE
5
DC
100
AcDbEntity
8
axes
6
ByLayer
62
256
370
-1
100
AcDbLine
10
705.876834199
20
13.8658717858
11
707.175872305
21
13.1158717858
0
LINE
5
DD
100
AcDbEntity
8
axes
6
ByLayer
62
256
370
-1
100
AcDbLine
10
705.876834199
20
13.8658717858
11
715.876834199
21
31.1863798615
0
LINE
5
DE
100
AcDbEntity
8
axes
6
ByLayer
62
256
370
-1
100
AcDbLine
10
715.876834199
20
31.1863798615
11
717.175872305
21
30.4363798615
0
LINE
5
DF
100
AcDbEntity
8
axes
6
ByLayer
62
256
370
-1
100
AcDbLine
10
712.550872305
20
22.4256448765
11
717.175872305
21
30.4363798615
0
LINE
5
E0
100
AcDbEntity
8
axes
6
ByLayer
62
256
370
-1
100
AcDbLine
10
712.550872305
20
22.4256448765
11
728.572342275
21
13.1756448765
0
LINE
5
E1
100
AcDbEntity
8
axes
6
ByLayer
62
256
370
-1
100
AcDbLine
10
707.175872305
20
13.1158717858
11
711.800872305
21
21.1266067708
0
LINE
5
E2
100
AcDbEntity
8
axes
6
ByLayer
62
256
370
-1
100
AcDbLine
10
711.800872305
20
21.1266067708
11
727.822342275
21
11.8766067709
0
ENDSEC
0
SECTION
2
OBJECTS
0
DICTIONARY
5
C
330
0
100
AcDbDictionary
281
1
3
ACAD_GROUP
350
D
0
DICTIONARY
5
D
330
C
100
AcDbDictionary
281
1
0
ENDSEC
0
EOF
