999
dxfrw 0.6.3
  0
SECTION
  2
HEADER
  9
$ACADVER
  1
AC1021
  9
$DWGCODEPAGE
  3
ANSI_1252
  9
$INSBASE
 10
0
 20
0
 30
0
  9
$EXTMIN
 10
10000000000
 20
10000000000
 30
0
  9
$EXTMAX
 10
-10000000000
 20
-10000000000
 30
0
  9
$LIMMIN
 10
0
 20
0
  9
$LIMMAX
 10
420
 20
297
  9
$ORTHOMODE
 70
    0
  9
$REGENMODE
 70
    1
  9
$FILLMODE
 70
    1
  9
$QTEXTMODE
 70
    0
  9
$MIRRTEXT
 70
    0
  9
$LTSCALE
 40
1
  9
$ATTMODE
 70
    0
  9
$TEXTSIZE
 40
2.5
  9
$TRACEWID
 40
15.68
  9
$TEXTSTYLE
  7
STANDARD
  9
$CLAYER
  8
top
  9
$CELTYPE
  6
BYLAYER
  9
$CECOLOR
 62
  256
  9
$CELTSCALE
 40
1
  9
$DISPSILH
 70
    0
  9
$DIMSCALE
 40
2.5
  9
$DIMASZ
 40
1
  9
$DIMEXO
 40
0.625
  9
$DIMDLI
 40
3.75
  9
$DIMRND
 40
0
  9
$DIMDLE
 40
0
  9
$DIMEXE
 40
1.25
  9
$DIMTP
 40
0
  9
$DIMTM
 40
0
  9
$DIMTXT
 40
1
  9
$DIMCEN
 40
2.5
  9
$DIMTSZ
 40
0
  9
$DIMTOL
 70
    0
  9
$DIMLIM
 70
    0
  9
$DIMTIH
 70
    0
  9
$DIMTOH
 70
    0
  9
$DIMSE1
 70
    0
  9
$DIMSE2
 70
    0
  9
$DIMTAD
 70
    1
  9
$DIMZIN
 70
    8
  9
$DIMBLK
  1

  9
$DIMASO
 70
    1
  9
$DIMSHO
 70
    1
  9
$DIMPOST
  1

  9
$DIMAPOST
  1

  9
$DIMALT
 70
    0
  9
$DIMALTD
 70
    3
  9
$DIMALTF
 40
0.03937
  9
$DIMLFAC
 40
1
  9
$DIMTOFL
 70
    1
  9
$DIMTVP
 40
0
  9
$DIMTIX
 70
    0
  9
$DIMSOXD
 70
    0
  9
$DIMSAH
 70
    0
  9
$DIMBLK1
  1

  9
$DIMBLK2
  1

  9
$DIMSTYLE
  2
STANDARD
  9
$DIMCLRD
 70
    0
  9
$DIMCLRE
 70
    0
  9
$DIMCLRT
 70
    0
  9
$DIMTFAC
 40
1
  9
$DIMGAP
 40
0.625
  9
$DIMJUST
 70
    0
  9
$DIMSD1
 70
    0
  9
$DIMSD2
 70
    0
  9
$DIMTOLJ
 70
    0
  9
$DIMTZIN
 70
    8
  9
$DIMALTZ
 70
    0
  9
$DIMALTTZ
 70
    0
  9
$DIMUPT
 70
    0
  9
$DIMDEC
 70
    2
  9
$DIMTDEC
 70
    2
  9
$DIMALTU
 70
    2
  9
$DIMALTTD
 70
    3
  9
$DIMTXSTY
  7
standard
  9
$DIMAUNIT
 70
    0
  9
$DIMADEC
 70
    0
  9
$DIMALTRND
 40
0
  9
$DIMAZIN
 70
    0
  9
$DIMDSEP
 70
   44
  9
$DIMATFIT
 70
    3
  9
$DIMFRAC
 70
    0
  9
$DIMLDRBLK
  1
STANDARD
  9
$DIMLUNIT
 70
    2
  9
$DIMLWD
 70
   -2
  9
$DIMLWE
 70
   -2
  9
$DIMTMOVE
 70
    0
  9
$DIMFXL
 40
1
  9
$DIMFXLON
 70
    0
  9
$DIMJOGANG
 40
0.7854
  9
$DIMTFILL
 70
    0
  9
$DIMTFILLCLR
 70
    0
  9
$DIMARCSYM
 70
    0
  9
$DIMLTYPE
  6

  9
$DIMLTEX1
  6

  9
$DIMLTEX2
  6

  9
$LUNITS
 70
    2
  9
$LUPREC
 70
    4
  9
$SKETCHINC
 40
1
  9
$FILLETRAD
 40
0
  9
$AUNITS
 70
    0
  9
$AUPREC
 70
    2
  9
$MENU
  1
.
  9
$ELEVATION
 40
0
  9
$PELEVATION
 40
0
  9
$THICKNESS
 40
0
  9
$LIMCHECK
 70
    0
  9
$CHAMFERA
 40
0
  9
$CHAMFERB
 40
0
  9
$CHAMFERC
 40
0
  9
$CHAMFERD
 40
0
  9
$SKPOLY
 70
    0
  9
$USRTIMER
 70
    1
  9
$ANGBASE
 50
0
  9
$ANGDIR
 70
    0
  9
$PDMODE
 70
   34
  9
$PDSIZE
 40
0
  9
$PLINEWID
 40
0
  9
$SPLFRAME
 70
    0
  9
$SPLINETYPE
 70
    2
  9
$SPLINESEGS
 70
    8
  9
$HANDSEED
  5
20000
  9
$SURFTAB1
 70
    6
  9
$SURFTAB2
 70
    6
  9
$SURFTYPE
 70
    6
  9
$SURFU
 70
    6
  9
$SURFV
 70
    6
  9
$UCSBASE
  2

  9
$UCSNAME
  2

  9
$UCSORG
 10
0
 20
0
 30
0
  9
$UCSXDIR
 10
1
 20
0
 30
0
  9
$UCSYDIR
 10
0
 20
1
 30
0
  9
$UCSORTHOREF
  2

  9
$UCSORTHOVIEW
 70
    0
  9
$UCSORGTOP
 10
0
 20
0
 30
0
  9
$UCSORGBOTTOM
 10
0
 20
0
 30
0
  9
$UCSORGLEFT
 10
0
 20
0
 30
0
  9
$UCSORGRIGHT
 10
0
 20
0
 30
0
  9
$UCSORGFRONT
 10
0
 20
0
 30
0
  9
$UCSORGBACK
 10
0
 20
0
 30
0
  9
$PUCSBASE
  2

  9
$PUCSNAME
  2

  9
$PUCSORG
 10
0
 20
0
 30
0
  9
$PUCSXDIR
 10
1
 20
0
 30
0
  9
$PUCSYDIR
 10
0
 20
1
 30
0
  9
$PUCSORTHOREF
  2

  9
$PUCSORTHOVIEW
 70
    0
  9
$PUCSORGTOP
 10
0
 20
0
 30
0
  9
$PUCSORGBOTTOM
 10
0
 20
0
 30
0
  9
$PUCSORGLEFT
 10
0
 20
0
 30
0
  9
$PUCSORGRIGHT
 10
0
 20
0
 30
0
  9
$PUCSORGFRONT
 10
0
 20
0
 30
0
  9
$PUCSORGBACK
 10
0
 20
0
 30
0
  9
$USERI1
 70
    0
  9
$USERI2
 70
    0
  9
$USERI3
 70
    0
  9
$USERI4
 70
    0
  9
$USERI5
 70
    0
  9
$USERR1
 40
0
  9
$USERR2
 40
0
  9
$USERR3
 40
0
  9
$USERR4
 40
0
  9
$USERR5
 40
0
  9
$WORLDVIEW
 70
    1
  9
$SHADEDGE
 70
    3
  9
$SHADEDIF
 70
   70
  9
$TILEMODE
 70
    1
  9
$MAXACTVP
 70
   64
  9
$PINSBASE
 10
12.5
 20
142.936517063245
 30
0
  9
$PLIMCHECK
 70
    0
  9
$PEXTMIN
 10
0
 20
0
 30
0
  9
$PEXTMAX
 10
0
 20
0
 30
0
  9
$GRIDMODE
 70
    1
  9
$SNAPSTYLE
 70
    0
  9
$GRIDUNIT
 10
0
 20
0
  9
$PLIMMIN
 10
0
 20
0
  9
$PLIMMAX
 10
210
 20
297
  9
$UNITMODE
 70
    0
  9
$VISRETAIN
 70
    1
  9
$PLINEGEN
 70
    0
  9
$PSLTSCALE
 70
    1
  9
$TREEDEPTH
 70
 3020
  9
$CMLSTYLE
  2
Standard
  9
$CMLJUST
 70
    0
  9
$CMLSCALE
 40
20
  9
$PROXYGRAPHICS
 70
    1
  9
$MEASUREMENT
 70
    1
  9
$CELWEIGHT
370
   -1
  9
$ENDCAPS
280
    0
  9
$JOINSTYLE
280
    0
  9
$LWDISPLAY
290
    0
  9
$INSUNITS
 70
    4
  9
$HYPERLINKBASE
  1

  9
$STYLESHEET
  1

  9
$XEDIT
290
    1
  9
$CEPSNTYPE
380
    0
  9
$PSTYLEMODE
290
    1
  9
$EXTNAMES
290
    1
  9
$PSVPSCALE
 40
4.06593
  9
$OLESTARTUP
290
    0
  9
$SORTENTS
280
  127
  9
$INDEXCTL
280
    0
  9
$HIDETEXT
280
    1
  9
$XCLIPFRAME
290
    0
  9
$HALOGAP
280
    0
  9
$OBSCOLOR
 70
  257
  9
$OBSLTYPE
280
    0
  9
$INTERSECTIONDISPLAY
280
    0
  9
$INTERSECTIONCOLOR
 70
  257
  9
$DIMASSOC
280
    1
  9
$PROJECTNAME
  1

  9
$CAMERADISPLAY
290
    0
  9
$LENSLENGTH
 40
50
  9
$CAMERAHEIGHT
 40
0
  9
$STEPSPERSEC
 40
2
  9
$STEPSIZE
 40
50
  9
$3DDWFPREC
 40
2
  9
$PSOLWIDTH
 40
5
  9
$PSOLHEIGHT
 40
80
  9
$LOFTANG1
 40
1.570796326794897
  9
$LOFTANG2
 40
1.570796326794897
  9
$LOFTMAG1
 40
0
  9
$LOFTMAG2
 40
0
  9
$LOFTPARAM
 70
    7
  9
$LOFTNORMALS
280
    1
  9
$LATITUDE
 40
1
  9
$LONGITUDE
 40
1
  9
$NORTHDIRECTION
 40
0
  9
$TIMEZONE
 70
-8000
  9
$LIGHTGLYPHDISPLAY
280
    1
  9
$TILEMODELIGHTSYNCH
280
    1
  9
$SOLIDHIST
280
    1
  9
$SHOWHIST
280
    1
  9
$DWFFRAME
280
    2
  9
$DGNFRAME
280
    0
  9
$REALWORLDSCALE
290
    1
  9
$INTERFERECOLOR
 62
    1
  9
$CSHADOW
280
    0
  9
$SHADOWPLANELOCATION
 40
0
  0
ENDSEC
  0
SECTION
  2
CLASSES
  0
ENDSEC
  0
SECTION
  2
TABLES
  0
TABLE
  2
VPORT
  5
8
330
0
100
AcDbSymbolTable
 70
    1
  0
VPORT
  5
31
330
2
100
AcDbSymbolTableRecord
100
AcDbViewportTableRecord
  2
*ACTIVE
 70
    0
 10
0
 20
0
 11
1
 21
1
 12
28.49670735744509
 22
14.83202117881479
 13
0
 23
0
 14
10
 24
10
 15
10
 25
10
 16
0
 26
0
 36
1
 17
0
 27
0
 37
0
 40
32.54804647573246
 41
2.409282700421941
 42
50
 43
0
 44
0
 50
0
 51
0
 71
    0
 72
  100
 73
    1
 74
    3
 75
    0
 76
    1
 77
    0
 78
    0
281
    0
 65
    1
110
0
120
0
130
0
111
1
121
0
131
0
112
0
122
1
132
0
 79
    0
146
0
348
10020
 60
    7
 61
    5
292
1
282
    1
141
0
142
0
 63
  250
421
3358443
  0
ENDTAB
  0
TABLE
  2
LTYPE
  5
5
330
0
100
AcDbSymbolTable
 70
    4
  0
LTYPE
  5
14
330
5
100
AcDbSymbolTableRecord
100
AcDbLinetypeTableRecord
  2
ByBlock
 70
    0
  3

 72
   65
 73
    0
 40
0
  0
LTYPE
  5
15
330
5
100
AcDbSymbolTableRecord
100
AcDbLinetypeTableRecord
  2
ByLayer
 70
    0
  3

 72
   65
 73
    0
 40
0
  0
LTYPE
  5
16
330
5
100
AcDbSymbolTableRecord
100
AcDbLinetypeTableRecord
  2
Continuous
 70
    0
  3
Solid line
 72
   65
 73
    0
 40
0
  0
LTYPE
  5
32
330
5
100
AcDbSymbolTableRecord
100
AcDbLinetypeTableRecord
  2
DOT
 70
    0
  3
Dot . . . . . . . . . . . . . . . . . . . . . .
 72
   65
 73
    2
 40
6.35
 49
0
 74
    0
 49
-6.35
 74
    0
  0
LTYPE
  5
33
330
5
100
AcDbSymbolTableRecord
100
AcDbLinetypeTableRecord
  2
DOTTINY
 70
    0
  3
Dot (.15x) .....................................
 72
   65
 73
    2
 40
0.9525
 49
0
 74
    0
 49
-0.9525
 74
    0
  0
LTYPE
  5
34
330
5
100
AcDbSymbolTableRecord
100
AcDbLinetypeTableRecord
  2
DOT2
 70
    0
  3
Dot (.5x) .....................................
 72
   65
 73
    2
 40
3.175
 49
0
 74
    0
 49
-3.175
 74
    0
  0
LTYPE
  5
35
330
5
100
AcDbSymbolTableRecord
100
AcDbLinetypeTableRecord
  2
DOTX2
 70
    0
  3
Dot (2x) .  .  .  .  .  .  .  .  .  .  .  .  .
 72
   65
 73
    2
 40
12.7
 49
0
 74
    0
 49
-12.7
 74
    0
  0
LTYPE
  5
36
330
5
100
AcDbSymbolTableRecord
100
AcDbLinetypeTableRecord
  2
DASHED
 70
    0
  3
Dashed _ _ _ _ _ _ _ _ _ _ _ _ _ _ _ _ _
 72
   65
 73
    2
 40
19.05
 49
12.7
 74
    0
 49
-6.35
 74
    0
  0
LTYPE
  5
37
330
5
100
AcDbSymbolTableRecord
100
AcDbLinetypeTableRecord
  2
DASHEDTINY
 70
    0
  3
Dashed (.15x) _ _ _ _ _ _ _ _ _ _ _ _ _ _ _ _ _
 72
   65
 73
    2
 40
2.8575
 49
1.905
 74
    0
 49
-0.9525
 74
    0
  0
LTYPE
  5
38
330
5
100
AcDbSymbolTableRecord
100
AcDbLinetypeTableRecord
  2
DASHED2
 70
    0
  3
Dashed (.5x) _ _ _ _ _ _ _ _ _ _ _ _ _ _ _ _ _
 72
   65
 73
    2
 40
9.524999999999999
 49
6.35
 74
    0
 49
-3.175
 74
    0
  0
LTYPE
  5
39
330
5
100
AcDbSymbolTableRecord
100
AcDbLinetypeTableRecord
  2
DASHEDX2
 70
    0
  3
Dashed (2x) ____  ____  ____  ____  ____  ___
 72
   65
 73
    2
 40
38.09999999999999
 49
25.4
 74
    0
 49
-12.7
 74
    0
  0
LTYPE
  5
3A
330
5
100
AcDbSymbolTableRecord
100
AcDbLinetypeTableRecord
  2
DASHDOT
 70
    0
  3
Dash dot __ . __ . __ . __ . __ . __ . __ . __
 72
   65
 73
    4
 40
25.4
 49
12.7
 74
    0
 49
-6.35
 74
    0
 49
0
 74
    0
 49
-6.35
 74
    0
  0
LTYPE
  5
3B
330
5
100
AcDbSymbolTableRecord
100
AcDbLinetypeTableRecord
  2
DASHDOTTINY
 70
    0
  3
Dash dot (.15x) _._._._._._._._._._._._._._._.
 72
   65
 73
    4
 40
3.81
 49
1.905
 74
    0
 49
-0.9525
 74
    0
 49
0
 74
    0
 49
-0.9525
 74
    0
  0
LTYPE
  5
3C
330
5
100
AcDbSymbolTableRecord
100
AcDbLinetypeTableRecord
  2
DASHDOT2
 70
    0
  3
Dash dot (.5x) _._._._._._._._._._._._._._._.
 72
   65
 73
    4
 40
12.7
 49
6.35
 74
    0
 49
-3.175
 74
    0
 49
0
 74
    0
 49
-3.175
 74
    0
  0
LTYPE
  5
3D
330
5
100
AcDbSymbolTableRecord
100
AcDbLinetypeTableRecord
  2
DASHDOTX2
 70
    0
  3
Dash dot (2x) ____  .  ____  .  ____  .  ___
 72
   65
 73
    4
 40
50.8
 49
25.4
 74
    0
 49
-12.7
 74
    0
 49
0
 74
    0
 49
-12.7
 74
    0
  0
LTYPE
  5
3E
330
5
100
AcDbSymbolTableRecord
100
AcDbLinetypeTableRecord
  2
DIVIDE
 70
    0
  3
Divide ____ . . ____ . . ____ . . ____ . . ____
 72
   65
 73
    6
 40
31.75
 49
12.7
 74
    0
 49
-6.35
 74
    0
 49
0
 74
    0
 49
-6.35
 74
    0
 49
0
 74
    0
 49
-6.35
 74
    0
  0
LTYPE
  5
3F
330
5
100
AcDbSymbolTableRecord
100
AcDbLinetypeTableRecord
  2
DIVIDETINY
 70
    0
  3
Divide (.15x) __..__..__..__..__..__..__..__.._
 72
   65
 73
    6
 40
4.7625
 49
1.905
 74
    0
 49
-0.9525
 74
    0
 49
0
 74
    0
 49
-0.9525
 74
    0
 49
0
 74
    0
 49
-0.9525
 74
    0
  0
LTYPE
  5
40
330
5
100
AcDbSymbolTableRecord
100
AcDbLinetypeTableRecord
  2
DIVIDE2
 70
    0
  3
Divide (.5x) __..__..__..__..__..__..__..__.._
 72
   65
 73
    6
 40
15.875
 49
6.35
 74
    0
 49
-3.175
 74
    0
 49
0
 74
    0
 49
-3.175
 74
    0
 49
0
 74
    0
 49
-3.175
 74
    0
  0
LTYPE
  5
41
330
5
100
AcDbSymbolTableRecord
100
AcDbLinetypeTableRecord
  2
DIVIDEX2
 70
    0
  3
Divide (2x) ________  .  .  ________  .  .  _
 72
   65
 73
    6
 40
63.5
 49
25.4
 74
    0
 49
-12.7
 74
    0
 49
0
 74
    0
 49
-12.7
 74
    0
 49
0
 74
    0
 49
-12.7
 74
    0
  0
LTYPE
  5
42
330
5
100
AcDbSymbolTableRecord
100
AcDbLinetypeTableRecord
  2
BORDER
 70
    0
  3
Border __ __ . __ __ . __ __ . __ __ . __ __ .
 72
   65
 73
    6
 40
44.45
 49
12.7
 74
    0
 49
-6.35
 74
    0
 49
12.7
 74
    0
 49
-6.35
 74
    0
 49
0
 74
    0
 49
-6.35
 74
    0
  0
LTYPE
  5
43
330
5
100
AcDbSymbolTableRecord
100
AcDbLinetypeTableRecord
  2
BORDERTINY
 70
    0
  3
Border (.15x) __.__.__.__.__.__.__.__.__.__.__.
 72
   65
 73
    6
 40
6.6675
 49
1.905
 74
    0
 49
-0.9525
 74
    0
 49
1.905
 74
    0
 49
-0.9525
 74
    0
 49
0
 74
    0
 49
-0.9525
 74
    0
  0
LTYPE
  5
44
330
5
100
AcDbSymbolTableRecord
100
AcDbLinetypeTableRecord
  2
BORDER2
 70
    0
  3
Border (.5x) __.__.__.__.__.__.__.__.__.__.__.
 72
   65
 73
    6
 40
22.225
 49
6.35
 74
    0
 49
-3.175
 74
    0
 49
6.35
 74
    0
 49
-3.175
 74
    0
 49
0
 74
    0
 49
-3.175
 74
    0
  0
LTYPE
  5
45
330
5
100
AcDbSymbolTableRecord
100
AcDbLinetypeTableRecord
  2
BORDERX2
 70
    0
  3
Border (2x) ____  ____  .  ____  ____  .  ___
 72
   65
 73
    6
 40
88.89999999999999
 49
25.4
 74
    0
 49
-12.7
 74
    0
 49
25.4
 74
    0
 49
-12.7
 74
    0
 49
0
 74
    0
 49
-12.7
 74
    0
  0
LTYPE
  5
46
330
5
100
AcDbSymbolTableRecord
100
AcDbLinetypeTableRecord
  2
CENTER
 70
    0
  3
Center ____ _ ____ _ ____ _ ____ _ ____ _ ____
 72
   65
 73
    4
 40
50.8
 49
31.75
 74
    0
 49
-6.35
 74
    0
 49
6.35
 74
    0
 49
-6.35
 74
    0
  0
LTYPE
  5
47
330
5
100
AcDbSymbolTableRecord
100
AcDbLinetypeTableRecord
  2
CENTERTINY
 70
    0
  3
Center (.15x) ___ _ ___ _ ___ _ ___ _ ___ _ ___
 72
   65
 73
    4
 40
7.619999999999999
 49
4.7625
 74
    0
 49
-0.9525
 74
    0
 49
0.9525
 74
    0
 49
-0.9525
 74
    0
  0
LTYPE
  5
48
330
5
100
AcDbSymbolTableRecord
100
AcDbLinetypeTableRecord
  2
CENTER2
 70
    0
  3
Center (.5x) ___ _ ___ _ ___ _ ___ _ ___ _ ___
 72
   65
 73
    4
 40
28.575
 49
19.05
 74
    0
 49
-3.175
 74
    0
 49
3.175
 74
    0
 49
-3.175
 74
    0
  0
LTYPE
  5
49
330
5
100
AcDbSymbolTableRecord
100
AcDbLinetypeTableRecord
  2
CENTERX2
 70
    0
  3
Center (2x) ________  __  ________  __  _____
 72
   65
 73
    4
 40
101.6
 49
63.5
 74
    0
 49
-12.7
 74
    0
 49
12.7
 74
    0
 49
-12.7
 74
    0
  0
ENDTAB
  0
TABLE
  2
LAYER
  5
2
330
0
100
AcDbSymbolTable
 70
    1
  0
LAYER
  5
10
330
2
100
AcDbSymbolTableRecord
100
AcDbLayerTableRecord
  2
0
 70
    0
 62
    7
  6
CONTINUOUS
370
    0
390
F
  0
LAYER
  5
4A
330
2
100
AcDbSymbolTableRecord
100
AcDbLayerTableRecord
  2
test
 70
    5
 62
    7
  6
CONTINUOUS
370
    0
390
F
  0
LAYER
  5
4B
330
2
100
AcDbSymbolTableRecord
100
AcDbLayerTableRecord
  2
top
 70
    0
 62
    7
  6
CONTINUOUS
370
    0
390
F
  0
LAYER
  5
4C
330
2
100
AcDbSymbolTableRecord
100
AcDbLayerTableRecord
  2
voie
 70
    5
 62
    7
  6
CONTINUOUS
370
    0
390
F
  0
ENDTAB
  0
TABLE
  2
STYLE
  5
3
330
0
100
AcDbSymbolTable
 70
    3
  0
STYLE
  5
4D
330
2
100
AcDbSymbolTableRecord
100
AcDbTextStyleTableRecord
  2
Standard
 70
    0
 40
0
 41
1
 50
0
 71
    0
 42
1
  3
txt
  4

  0
ENDTAB
  0
TABLE
  2
VIEW
  5
6
330
0
100
AcDbSymbolTable
 70
    0
  0
ENDTAB
  0
TABLE
  2
UCS
  5
7
330
0
100
AcDbSymbolTable
 70
    0
  0
ENDTAB
  0
TABLE
  2
APPID
  5
9
330
0
100
AcDbSymbolTable
 70
    1
  0
APPID
  5
12
330
9
100
AcDbSymbolTableRecord
100
AcDbRegAppTableRecord
  2
ACAD
 70
    0
  0
APPID
  5
4E
330
9
100
AcDbSymbolTableRecord
100
AcDbRegAppTableRecord
  2
LibreCad
 70
    0
  0
ENDTAB
  0
TABLE
  2
DIMSTYLE
  5
A
330
0
100
AcDbSymbolTable
 70
    1
100
AcDbDimStyleTable
 71
    1
  0
DIMSTYLE
105
4F
330
A
100
AcDbSymbolTableRecord
100
AcDbDimStyleTableRecord
  2
Standard
 70
    0
 40
2.5
 41
1
 42
0.625
 43
0.38
 44
1.25
 45
0
 46
0
 47
0
 48
0
 49
1
140
1
141
0.09
142
0
143
25.4
144
1
145
0
146
1
147
0.625
148
0
 71
    0
 72
    0
 73
    0
 74
    1
 75
    0
 76
    0
 77
    0
 78
    8
 79
    0
170
    0
171
    2
172
    0
173
    0
174
    0
175
    0
176
    0
177
    0
178
    0
179
    0
271
    2
272
    4
273
    2
274
    2
275
    0
276
    0
277
    2
278
   44
279
    0
280
    0
281
    0
282
    0
283
    1
284
    0
285
    0
286
    0
288
    0
289
    3
340
standard
341

371
   -2
372
   -2
  0
ENDTAB
  0
TABLE
  2
BLOCK_RECORD
  5
1
330
0
100
AcDbSymbolTable
 70
    2
  0
BLOCK_RECORD
  5
1F
330
1
100
AcDbSymbolTableRecord
100
AcDbBlockTableRecord
  2
*Model_Space
 70
    0
280
    1
281
    0
  0
BLOCK_RECORD
  5
1E
330
1
100
AcDbSymbolTableRecord
100
AcDbBlockTableRecord
  2
*Paper_Space
 70
    0
280
    1
281
    0
  0
BLOCK_RECORD
  5
50
330
1
100
AcDbSymbolTableRecord
100
AcDbBlockTableRecord
  2
*D1
 70
    0
280
    1
281
    0
  0
BLOCK_RECORD
  5
53
330
1
100
AcDbSymbolTableRecord
100
AcDbBlockTableRecord
  2
*D2
 70
    0
280
    1
281
    0
  0
BLOCK_RECORD
  5
56
330
1
100
AcDbSymbolTableRecord
100
AcDbBlockTableRecord
  2
*D3
 70
    0
280
    1
281
    0
  0
BLOCK_RECORD
  5
59
330
1
100
AcDbSymbolTableRecord
100
AcDbBlockTableRecord
  2
rails
 70
    0
280
    1
281
    0
  0
BLOCK_RECORD
  5
5C
330
1
100
AcDbSymbolTableRecord
100
AcDbBlockTableRecord
  2
rails-0
 70
    0
280
    1
281
    0
  0
BLOCK_RECORD
  5
5F
330
1
100
AcDbSymbolTableRecord
100
AcDbBlockTableRecord
  2
voie
 70
    0
280
    1
281
    0
  0
BLOCK_RECORD
  5
62
330
1
100
AcDbSymbolTableRecord
100
AcDbBlockTableRecord
  2
_wheel
 70
    0
280
    1
281
    0
  0
ENDTAB
  0
ENDSEC
  0
SECTION
  2
BLOCKS
  0
BLOCK
  5
20
330
1F
100
AcDbEntity
  8
0
100
AcDbBlockBegin
  2
*Model_Space
 70
    0
 10
0
 20
0
 30
0
  3
*Model_Space
  1

  0
ENDBLK
  5
21
330
1F
100
AcDbEntity
  8
0
100
AcDbBlockEnd
  0
BLOCK
  5
1C
330
1B
100
AcDbEntity
  8
0
100
AcDbBlockBegin
  2
*Paper_Space
 70
    0
 10
0
 20
0
 30
0
  3
*Paper_Space
  1

  0
ENDBLK
  5
1D
330
1F
100
AcDbEntity
  8
0
100
AcDbBlockEnd
  0
BLOCK
  5
51
330
50
100
AcDbEntity
  8
0
100
AcDbBlockBegin
  2
*D1
 70
    1
 10
0
 20
0
  3
*D1
  1

  0
LINE
  5
65
100
AcDbEntity
  8
test
  6
ByBlock
 62
    0
370
   -2
100
AcDbLine
 10
10.79
 20
-5.003813612059586
 11
34.71
 21
-5.003813612059586
  0
SOLID
  5
66
100
AcDbEntity
  8
test
  6
ByBlock
 62
    0
370
   -2
100
AcDbTrace
 10
10.79
 20
-5.003813612059586
 30
0
 11
13.29
 21
-4.587528954286746
 31
0
 12
13.29
 22
-5.420098269832427
 32
0
 13
13.29
 23
-5.420098269832427
 33
0
  0
SOLID
  5
67
100
AcDbEntity
  8
test
  6
ByBlock
 62
    0
370
   -2
100
AcDbTrace
 10
34.71
 20
-5.003813612059586
 30
0
 11
32.21
 21
-5.420098269832427
 31
0
 12
32.21
 22
-4.587528954286745
 32
0
 13
32.21
 23
-4.587528954286745
 33
0
  0
MTEXT
  5
68
100
AcDbEntity
  8
test
  6
CONTINUOUS
 62
    0
370
   -2
100
AcDbMText
 10
22.75
 20
-2.191313612059586
 30
0
 40
2.5
 41
7.916666666666823
 71
    5
 72
    1
  1
23,92
  7
standard
210
0
220
0
230
1
 50
0
 73
    2
 44
1
  0
LINE
  5
69
100
AcDbEntity
  8
test
  6
ByBlock
 62
    0
370
   -2
100
AcDbLine
 10
10.79
 20
0.4375000000000009
 11
10.79
 21
-8.128813612059586
  0
LINE
  5
6A
100
AcDbEntity
  8
test
  6
ByBlock
 62
    0
370
   -2
100
AcDbLine
 10
34.71
 20
0.437500000000008
 11
34.71
 21
-8.128813612059586
  0
ENDBLK
  5
52
330
50
100
AcDbEntity
  8
0
100
AcDbBlockEnd
  0
BLOCK
  5
54
330
53
100
AcDbEntity
  8
0
100
AcDbBlockBegin
  2
*D2
 70
    1
 10
0
 20
0
  3
*D2
  1

  0
LINE
  5
6B
100
AcDbEntity
  8
test
  6
ByBlock
 62
    0
370
   -2
100
AcDbLine
 10
8.503004597302198
 20
-12.25423741728878
 11
36.9969954026978
 21
-12.25423741728878
  0
SOLID
  5
6C
100
AcDbEntity
  8
test
  6
ByBlock
 62
    0
370
   -2
100
AcDbTrace
 10
8.503004597302198
 20
-12.25423741728878
 30
0
 11
11.0030045973022
 21
-11.83795275951594
 31
0
 12
11.0030045973022
 22
-12.67052207506162
 32
0
 13
11.0030045973022
 23
-12.67052207506162
 33
0
  0
SOLID
  5
6D
100
AcDbEntity
  8
test
  6
ByBlock
 62
    0
370
   -2
100
AcDbTrace
 10
36.9969954026978
 20
-12.25423741728878
 30
0
 11
34.4969954026978
 21
-12.67052207506162
 31
0
 12
34.4969954026978
 22
-11.83795275951594
 32
0
 13
34.4969954026978
 23
-11.83795275951594
 33
0
  0
MTEXT
  5
6E
100
AcDbEntity
  8
test
  6
CONTINUOUS
 62
    0
370
   -2
100
AcDbMText
 10
22.75
 20
-9.441737417288779
 30
0
 40
2.5
 41
8.194444444444445
 71
    5
 72
    1
  1
28,49
  7
standard
210
0
220
0
230
1
 50
0
 73
    2
 44
1
  0
LINE
  5
6F
100
AcDbEntity
  8
test
  6
ByBlock
 62
    0
370
   -2
100
AcDbLine
 10
8.503004597302201
 20
9.053369564557441
 11
8.503004597302198
 21
-15.37923741728878
  0
LINE
  5
70
100
AcDbEntity
  8
test
  6
ByBlock
 62
    0
370
   -2
100
AcDbLine
 10
36.9969954026978
 20
9.053369564557441
 11
36.9969954026978
 21
-15.37923741728878
  0
ENDBLK
  5
55
330
53
100
AcDbEntity
  8
0
100
AcDbBlockEnd
  0
BLOCK
  5
57
330
56
100
AcDbEntity
  8
0
100
AcDbBlockBegin
  2
*D3
 70
    1
 10
0
 20
0
  3
*D3
  1

  0
LINE
  5
71
100
AcDbEntity
  8
test
  6
ByBlock
 62
    0
370
   -2
100
AcDbLine
 10
12.7030045973022
 20
9.115869564557444
 11
32.7969954026978
 21
9.115869564557444
  0
SOLID
  5
72
100
AcDbEntity
  8
test
  6
ByBlock
 62
    0
370
   -2
100
AcDbTrace
 10
12.7030045973022
 20
9.115869564557444
 30
0
 11
15.2030045973022
 21
9.532154222330284
 31
0
 12
15.2030045973022
 22
8.699584906784603
 32
0
 13
15.2030045973022
 23
8.699584906784603
 33
0
  0
SOLID
  5
73
100
AcDbEntity
  8
test
  6
ByBlock
 62
    0
370
   -2
100
AcDbTrace
 10
32.7969954026978
 20
9.115869564557444
 30
0
 11
30.2969954026978
 21
8.699584906784604
 31
0
 12
30.2969954026978
 22
9.532154222330284
 32
0
 13
30.2969954026978
 23
9.532154222330284
 33
0
  0
MTEXT
  5
74
100
AcDbEntity
  8
test
  6
CONTINUOUS
 62
    0
370
   -2
100
AcDbMText
 10
22.75
 20
11.92836956455744
 30
0
 40
2.5
 41
7.916666666666667
 71
    5
 72
    1
  1
20,09
  7
standard
210
0
220
0
230
1
 50
0
 73
    2
 44
1
  0
LINE
  5
75
100
AcDbEntity
  8
test
  6
ByBlock
 62
    0
370
   -2
100
AcDbLine
 10
12.7030045973022
 20
10.67836956455745
 11
12.7030045973022
 21
12.24086956455744
  0
LINE
  5
76
100
AcDbEntity
  8
test
  6
ByBlock
 62
    0
370
   -2
100
AcDbLine
 10
32.7969954026978
 20
10.67836956455744
 11
32.7969954026978
 21
12.24086956455744
  0
ENDBLK
  5
58
330
56
100
AcDbEntity
  8
0
100
AcDbBlockEnd
  0
BLOCK
  5
5A
330
59
100
AcDbEntity
  8
0
100
AcDbBlockBegin
  2
rails
 70
    0
 10
0
 20
0
  3
rails
  1

  0
HATCH
  5
77
100
AcDbEntity
  8
0
  6
ByLayer
 62
  256
370
   -1
100
AcDbHatch
 10
0
 20
0
 30
0
210
0
220
0
230
1
  2
SOLID
 70
    1
 71
    0
 91
    1
 92
    0
 93
  124
 72
    1
 10
1.77635683940025e-15
 20
33.21
 11
-3.552713678800501e-15
 21
-10.79
 72
    1
 10
-3.552713678800501e-15
 20
-10.79
 11
3.999999999999996
 21
-10.79
 72
    1
 10
3.999999999999996
 20
-10.79
 11
3.999999999999997
 21
-1.5
 72
    1
 10
3.999999999999997
 20
-1.5
 11
9.999999999999996
 21
-1.5
 72
    1
 10
9.999999999999996
 20
-1.5
 11
9.999999999999996
 21
-10.79
 72
    1
 10
9.999999999999996
 20
-10.79
 11
13.99999999999999
 21
-10.79
 72
    1
 10
13.99999999999999
 20
-10.79
 11
14
 21
-1.5
 72
    1
 10
14
 20
-1.5
 11
20
 21
-1.5
 72
    1
 10
20
 20
-1.5
 11
20
 21
-10.79
 72
    1
 10
20
 20
-10.79
 11
24
 21
-10.79
 72
    1
 10
24
 20
-10.79
 11
24
 21
-1.5
 72
    1
 10
24
 20
-1.5
 11
30
 21
-1.5
 72
    1
 10
30
 20
-1.5
 11
30
 21
-10.79
 72
    1
 10
30
 20
-10.79
 11
34
 21
-10.79
 72
    1
 10
34
 20
-10.79
 11
34
 21
-1.5
 72
    1
 10
34.00000000000001
 20
-1.5
 11
40
 21
-1.5
 72
    1
 10
40
 20
-1.5
 11
40
 21
-10.79
 72
    1
 10
40
 20
-10.79
 11
44
 21
-10.79
 72
    1
 10
44
 20
-10.79
 11
44
 21
-1.5
 72
    1
 10
44.00000000000001
 20
-1.5
 11
50
 21
-1.5
 72
    1
 10
50
 20
-1.5
 11
50
 21
-10.79
 72
    1
 10
50
 20
-10.79
 11
54
 21
-10.79
 72
    1
 10
54
 20
-10.79
 11
54
 21
-1.5
 72
    1
 10
54.00000000000001
 20
-1.5
 11
60.00000000000001
 21
-1.5
 72
    1
 10
60.00000000000001
 20
-1.5
 11
60.00000000000001
 21
-10.79
 72
    1
 10
60.00000000000001
 20
-10.79
 11
64
 21
-10.79
 72
    1
 10
64
 20
-10.79
 11
64
 21
-1.5
 72
    1
 10
64.00000000000001
 20
-1.5
 11
70.00000000000001
 21
-1.5
 72
    1
 10
70.00000000000001
 20
-1.5
 11
70.00000000000001
 21
-10.79
 72
    1
 10
70.00000000000001
 20
-10.79
 11
74.00000000000001
 21
-10.79
 72
    1
 10
74.00000000000001
 20
-10.79
 11
74.00000000000001
 21
-1.5
 72
    1
 10
74.00000000000001
 20
-1.5
 11
80.00000000000001
 21
-1.5
 72
    1
 10
80.00000000000001
 20
-1.5
 11
80.00000000000001
 21
-10.79
 72
    1
 10
80.00000000000001
 20
-10.79
 11
84.00000000000001
 21
-10.79
 72
    1
 10
84.00000000000001
 20
-10.79
 11
84.00000000000001
 21
-1.5
 72
    1
 10
84.00000000000001
 20
-1.5
 11
90.00000000000001
 21
-1.5
 72
    1
 10
90.00000000000001
 20
-1.5
 11
90.00000000000001
 21
-10.79
 72
    1
 10
90.00000000000001
 20
-10.79
 11
94.00000000000001
 21
-10.79
 72
    1
 10
94.00000000000001
 20
-10.79
 11
94.00000000000001
 21
-1.5
 72
    1
 10
94.00000000000001
 20
-1.5
 11
100
 21
-1.5
 72
    1
 10
100
 20
-1.5
 11
100
 21
-10.79
 72
    1
 10
100
 20
-10.79
 11
104
 21
-10.79
 72
    1
 10
104
 20
-10.79
 11
104
 21
33.21
 72
    1
 10
104
 20
33.21
 11
100
 21
33.21
 72
    1
 10
100
 20
33.21
 11
100
 21
23.92
 72
    1
 10
100
 20
23.92
 11
94.00000000000001
 21
23.92
 72
    1
 10
94.00000000000001
 20
23.92
 11
94.00000000000001
 21
33.21
 72
    1
 10
94.00000000000001
 20
33.21
 11
90.00000000000001
 21
33.21
 72
    1
 10
90.00000000000001
 20
33.21
 11
90.00000000000001
 21
23.92
 72
    1
 10
90.00000000000001
 20
23.92
 11
84.00000000000001
 21
23.92
 72
    1
 10
84.00000000000001
 20
23.92
 11
84.00000000000001
 21
33.21
 72
    1
 10
84.00000000000001
 20
33.21
 11
80.00000000000001
 21
33.21
 72
    1
 10
80.00000000000001
 20
33.21
 11
80.00000000000001
 21
23.92
 72
    1
 10
80.00000000000001
 20
23.92
 11
74.00000000000001
 21
23.92
 72
    1
 10
74.00000000000001
 20
23.92
 11
74.00000000000001
 21
33.21
 72
    1
 10
74.00000000000001
 20
33.21
 11
70.00000000000001
 21
33.21
 72
    1
 10
70.00000000000001
 20
33.21
 11
70.00000000000001
 21
23.92
 72
    1
 10
70.00000000000001
 20
23.92
 11
64.00000000000001
 21
23.92
 72
    1
 10
64.00000000000001
 20
23.92
 11
64.00000000000001
 21
33.21
 72
    1
 10
64.00000000000001
 20
33.21
 11
60.00000000000001
 21
33.21
 72
    1
 10
60.00000000000001
 20
33.21
 11
60.00000000000001
 21
23.92
 72
    1
 10
60.00000000000001
 20
23.92
 11
54.00000000000001
 21
23.92
 72
    1
 10
54.00000000000001
 20
23.92
 11
54.00000000000001
 21
33.21
 72
    1
 10
54.00000000000001
 20
33.21
 11
50.00000000000001
 21
33.21
 72
    1
 10
50.00000000000001
 20
33.21
 11
50.00000000000001
 21
23.92
 72
    1
 10
50.00000000000001
 20
23.92
 11
44.00000000000001
 21
23.92
 72
    1
 10
44.00000000000001
 20
23.92
 11
44.00000000000001
 21
33.21
 72
    1
 10
44.00000000000001
 20
33.21
 11
40.00000000000001
 21
33.21
 72
    1
 10
40.00000000000001
 20
33.21
 11
40.00000000000001
 21
23.92
 72
    1
 10
40.00000000000001
 20
23.92
 11
34.00000000000001
 21
23.92
 72
    1
 10
34.00000000000001
 20
23.92
 11
34.00000000000001
 21
33.21
 72
    1
 10
34.00000000000001
 20
33.21
 11
30.00000000000001
 21
33.21
 72
    1
 10
30.00000000000001
 20
33.21
 11
30
 21
23.92
 72
    1
 10
30
 20
23.92
 11
24
 21
23.92
 72
    1
 10
24
 20
23.92
 11
24
 21
33.21
 72
    1
 10
24
 20
33.21
 11
20
 21
33.21
 72
    1
 10
20
 20
33.21
 11
20
 21
23.92
 72
    1
 10
20
 20
23.92
 11
14
 21
23.92
 72
    1
 10
14
 20
23.92
 11
14
 21
33.21
 72
    1
 10
14
 20
33.21
 11
10
 21
33.21
 72
    1
 10
10
 20
33.21
 11
10
 21
23.92
 72
    1
 10
10
 20
23.92
 11
3.999999999999999
 21
23.92
 72
    1
 10
3.999999999999999
 20
23.92
 11
4.000000000000003
 21
33.21
 72
    1
 10
4.000000000000003
 20
33.21
 11
1.77635683940025e-15
 21
33.21
 72
    1
 10
3.999999999999999
 20
22.42
 11
3.999999999999997
 21
0
 72
    1
 10
3.999999999999997
 20
0
 11
9.999999999999996
 21
0
 72
    1
 10
9.999999999999996
 20
0
 11
10
 21
22.42
 72
    1
 10
10
 20
22.42
 11
3.999999999999999
 21
22.42
 72
    1
 10
14
 20
22.42
 11
14
 21
0
 72
    1
 10
14
 20
0
 11
20
 21
0
 72
    1
 10
20
 20
0
 11
20
 21
22.42
 72
    1
 10
20
 20
22.42
 11
14
 21
22.42
 72
    1
 10
24
 20
22.42
 11
24
 21
0
 72
    1
 10
24
 20
0
 11
30
 21
0
 72
    1
 10
30
 20
0
 11
30
 21
22.42
 72
    1
 10
30
 20
22.42
 11
24
 21
22.42
 72
    1
 10
34.00000000000001
 20
22.42
 11
34
 21
0
 72
    1
 10
34.00000000000001
 20
0
 11
40
 21
0
 72
    1
 10
40
 20
0
 11
40.00000000000001
 21
22.42
 72
    1
 10
40.00000000000001
 20
22.42
 11
34.00000000000001
 21
22.42
 72
    1
 10
44.00000000000001
 20
22.42
 11
44
 21
0
 72
    1
 10
44.00000000000001
 20
0
 11
50
 21
0
 72
    1
 10
50
 20
0
 11
50.00000000000001
 21
22.42
 72
    1
 10
50.00000000000001
 20
22.42
 11
44.00000000000001
 21
22.42
 72
    1
 10
54.00000000000001
 20
22.42
 11
54
 21
0
 72
    1
 10
54.00000000000001
 20
0
 11
60.00000000000001
 21
0
 72
    1
 10
60.00000000000001
 20
0
 11
60.00000000000001
 21
22.42
 72
    1
 10
60.00000000000001
 20
22.42
 11
54.00000000000001
 21
22.42
 72
    1
 10
64.00000000000001
 20
22.42
 11
64
 21
0
 72
    1
 10
64.00000000000001
 20
0
 11
70.00000000000001
 21
0
 72
    1
 10
70.00000000000001
 20
0
 11
70.00000000000001
 21
22.42
 72
    1
 10
70.00000000000001
 20
22.42
 11
64.00000000000001
 21
22.42
 72
    1
 10
74.00000000000001
 20
22.42
 11
74.00000000000001
 21
0
 72
    1
 10
74.00000000000001
 20
0
 11
80.00000000000001
 21
0
 72
    1
 10
80.00000000000001
 20
0
 11
80.00000000000001
 21
22.42
 72
    1
 10
80.00000000000001
 20
22.42
 11
74.00000000000001
 21
22.42
 72
    1
 10
84.00000000000001
 20
22.42
 11
84.00000000000001
 21
0
 72
    1
 10
84.00000000000001
 20
0
 11
90.00000000000001
 21
0
 72
    1
 10
90.00000000000001
 20
0
 11
90.00000000000001
 21
22.42
 72
    1
 10
90.00000000000001
 20
22.42
 11
84.00000000000001
 21
22.42
 72
    1
 10
94.00000000000001
 20
22.42
 11
94.00000000000001
 21
0
 72
    1
 10
94.00000000000001
 20
0
 11
100
 21
0
 72
    1
 10
100
 20
0
 11
100
 21
22.42
 72
    1
 10
100
 20
22.42
 11
94.00000000000001
 21
22.42
 97
    0
 75
    0
 76
    1
 98
    0
  0
HATCH
  5
78
100
AcDbEntity
  8
voie
  6
ByLayer
 62
  256
370
   -1
100
AcDbHatch
 10
0
 20
0
 30
0
210
0
220
0
230
1
  2
SOLID
 70
    1
 71
    0
 91
    1
 92
    0
 93
   12
 72
    1
 10
0
 20
0
 11
45.5
 21
0
 72
    1
 10
45.5
 20
0
 11
45.5
 21
2
 72
    1
 10
45.5
 20
2
 11
36.21
 21
2
 72
    1
 10
36.21
 20
2
 11
36.21
 21
4.500000000000007
 72
    1
 10
36.21
 20
4.500000000000007
 11
34.71
 21
4.500000000000007
 72
    1
 10
34.71
 20
4.500000000000007
 11
34.71
 21
2.000000000000007
 72
    1
 10
34.71
 20
2.000000000000007
 11
10.79
 21
2
 72
    1
 10
10.79
 20
2
 11
10.79
 21
4.5
 72
    1
 10
10.79
 20
4.5
 11
9.289999999999999
 21
4.5
 72
    1
 10
9.289999999999999
 20
4.5
 11
9.289999999999999
 21
2
 72
    1
 10
9.289999999999999
 20
2
 11
0
 21
2
 72
    1
 10
0
 20
2
 11
0
 21
0
 97
    0
 75
    0
 76
    1
 98
    0
  0
LINE
  5
79
100
AcDbEntity
  8
voie
  6
ByLayer
 62
  256
370
   -1
100
AcDbLine
 10
0
 20
0
 11
45.5
 21
0
  0
LINE
  5
7A
100
AcDbEntity
  8
voie
  6
ByLayer
 62
  256
370
   -1
100
AcDbLine
 10
0
 20
2
 11
0
 21
0
  0
LINE
  5
7B
100
AcDbEntity
  8
voie
  6
ByLayer
 62
  256
370
   -1
100
AcDbLine
 10
45.5
 20
2
 11
45.5
 21
0
  0
LINE
  5
7C
100
AcDbEntity
  8
voie
  6
ByLayer
 62
  256
370
   -1
100
AcDbLine
 10
0
 20
2
 11
9.289999999999999
 21
2
  0
LINE
  5
7D
100
AcDbEntity
  8
voie
  6
ByLayer
 62
  256
370
   -1
100
AcDbLine
 10
36.21
 20
2
 11
45.5
 21
2
  0
LINE
  5
7E
100
AcDbEntity
  8
voie
  6
ByLayer
 62
  256
370
   -1
100
AcDbLine
 10
10.79
 20
2
 11
34.71
 21
2.000000000000007
  0
LINE
  5
7F
100
AcDbEntity
  8
voie
  6
ByLayer
 62
  256
370
   -1
100
AcDbLine
 10
10.79
 20
2
 11
10.79
 21
4.5
  0
LINE
  5
80
100
AcDbEntity
  8
voie
  6
ByLayer
 62
  256
370
   -1
100
AcDbLine
 10
9.289999999999999
 20
4.5
 11
9.289999999999999
 21
2
  0
LINE
  5
81
100
AcDbEntity
  8
voie
  6
ByLayer
 62
  256
370
   -1
100
AcDbLine
 10
34.71
 20
4.500000000000007
 11
34.71
 21
2.000000000000007
  0
LINE
  5
82
100
AcDbEntity
  8
voie
  6
ByLayer
 62
  256
370
   -1
100
AcDbLine
 10
36.21
 20
2
 11
36.21
 21
4.500000000000007
  0
LINE
  5
83
100
AcDbEntity
  8
voie
  6
ByLayer
 62
  256
370
   -1
100
AcDbLine
 10
9.289999999999999
 20
4.5
 11
10.79
 21
4.5
  0
LINE
  5
84
100
AcDbEntity
  8
voie
  6
ByLayer
 62
  256
370
   -1
100
AcDbLine
 10
34.71
 20
4.500000000000007
 11
36.21
 21
4.500000000000007
  0
DIMENSION
  5
85
100
AcDbEntity
  8
voie
  6
ByLayer
 62
  256
370
   -1
100
AcDbDimension
 10
9.289999999999999
 20
5.941273659991857
 30
0
 11
4.644999999999999
 21
11.56627365999186
 31
0
 70
   32
 71
    5
  3
Standard
 53
0
210
0
220
0
230
1
100
AcDbAlignedDimension
 13
0
 23
2
 33
0
 14
9.289999999999999
 24
2
 34
0
100
AcDbRotatedDimension
  0
DIMENSION
  5
86
100
AcDbEntity
  8
voie
  6
ByLayer
 62
  256
370
   -1
100
AcDbDimension
 10
10.79
 20
5.941273659991857
 30
0
 11
10.04
 21
11.56627365999186
 31
0
 70
   32
 71
    5
  3
Standard
 53
0
210
0
220
0
230
1
100
AcDbAlignedDimension
 13
9.289999999999999
 23
4.5
 33
0
 14
10.79
 24
4.5
 34
0
100
AcDbRotatedDimension
  0
DIMENSION
  5
87
100
AcDbEntity
  8
voie
  6
ByLayer
 62
  256
370
   -1
100
AcDbDimension
 10
34.71
 20
5.941273659991857
 30
0
 11
22.75
 21
11.56627365999186
 31
0
 70
   32
 71
    5
  3
Standard
 53
0
210
0
220
0
230
1
100
AcDbAlignedDimension
 13
10.79
 23
4.5
 33
0
 14
34.71
 24
4.500000000000007
 34
0
100
AcDbRotatedDimension
  0
DIMENSION
  5
88
100
AcDbEntity
  8
voie
  6
ByLayer
 62
  256
370
   -1
100
AcDbDimension
 10
36.21
 20
5.941273659991857
 30
0
 11
35.46
 21
11.56627365999186
 31
0
 70
   32
 71
    5
  3
Standard
 53
0
210
0
220
0
230
1
100
AcDbAlignedDimension
 13
34.71
 23
4.500000000000007
 33
0
 14
36.21
 24
4.500000000000007
 34
0
100
AcDbRotatedDimension
  0
DIMENSION
  5
89
100
AcDbEntity
  8
voie
  6
ByLayer
 62
  256
370
   -1
100
AcDbDimension
 10
45.5
 20
5.941273659991857
 30
0
 11
40.855
 21
11.56627365999186
 31
0
 70
   32
 71
    5
  3
Standard
 53
0
210
0
220
0
230
1
100
AcDbAlignedDimension
 13
36.21
 23
4.500000000000007
 33
0
 14
45.5
 24
2
 34
0
100
AcDbRotatedDimension
  0
DIMENSION
  5
8A
100
AcDbEntity
  8
voie
  6
ByLayer
 62
  256
370
   -1
100
AcDbDimension
 10
45.5
 20
9.828773709122331
 30
0
 11
22.75
 21
15.45377370912233
 31
0
 70
   32
 71
    5
  3
Standard
 53
0
210
0
220
0
230
1
100
AcDbAlignedDimension
 13
0
 23
2
 33
0
 14
45.5
 24
2
 34
0
100
AcDbRotatedDimension
  0
DIMENSION
  5
8B
100
AcDbEntity
  8
voie
  6
ByLayer
 62
  256
370
   -1
100
AcDbDimension
 10
-6.014622717522623
 20
2
 30
0
 11
-11.63962271752262
 21
1
 31
0
 70
   32
 71
    5
  3
Standard
 53
0
210
0
220
0
230
1
100
AcDbAlignedDimension
 13
0
 23
0
 33
0
 14
0
 24
2
 34
0
 50
90
100
AcDbRotatedDimension
  0
DIMENSION
  5
8C
100
AcDbEntity
  8
voie
  6
ByLayer
 62
  256
370
   -1
100
AcDbDimension
 10
-3.2273585313536
 20
4.5
 30
0
 11
-8.8523585313536
 21
3.25
 31
0
 70
   32
 71
    5
  3
Standard
 53
0
210
0
220
0
230
1
100
AcDbAlignedDimension
 13
0
 23
2
 33
0
 14
9.289999999999999
 24
4.5
 34
0
 50
90
100
AcDbRotatedDimension
  0
LINE
  5
8D
100
AcDbEntity
  8
voie
  6
ByLayer
 62
  256
370
   -1
100
AcDbLine
 10
102
 20
23.92
 11
2.000000000000003
 21
23.92
  0
LINE
  5
8E
100
AcDbEntity
  8
voie
  6
ByLayer
 62
  256
370
   -1
100
AcDbLine
 10
102
 20
-1.5
 11
1.999999999999998
 21
-1.5
  0
LINE
  5
8F
100
AcDbEntity
  8
voie
  6
ByLayer
 62
  256
370
   -1
100
AcDbLine
 10
102
 20
23.92
 11
2.000000000000003
 21
23.92
  0
LINE
  5
90
100
AcDbEntity
  8
voie
  6
ByLayer
 62
  256
370
   -1
100
AcDbLine
 10
102
 20
23.92
 11
2.000000000000003
 21
23.92
  0
LINE
  5
91
100
AcDbEntity
  8
voie
  6
ByLayer
 62
  256
370
   -1
100
AcDbLine
 10
102
 20
23.92
 11
2.000000000000003
 21
23.92
  0
ENDBLK
  5
5B
330
59
100
AcDbEntity
  8
0
100
AcDbBlockEnd
  0
BLOCK
  5
5D
330
5C
100
AcDbEntity
  8
0
100
AcDbBlockBegin
  2
rails-0
 70
    0
 10
0
 20
0
  3
rails-0
  1

  0
HATCH
  5
92
100
AcDbEntity
  8
0
  6
ByLayer
 62
  256
370
   -1
100
AcDbHatch
 10
0
 20
0
 30
0
210
0
220
0
230
1
  2
SOLID
 70
    1
 71
    0
 91
    1
 92
    0
 93
  124
 72
    1
 10
1.77635683940025e-15
 20
33.21
 11
-3.552713678800501e-15
 21
-10.79
 72
    1
 10
-3.552713678800501e-15
 20
-10.79
 11
3.999999999999996
 21
-10.79
 72
    1
 10
3.999999999999996
 20
-10.79
 11
3.999999999999996
 21
-1.5
 72
    1
 10
3.999999999999996
 20
-1.5
 11
9.999999999999996
 21
-1.5
 72
    1
 10
9.999999999999996
 20
-1.5
 11
9.999999999999995
 21
-10.79
 72
    1
 10
9.999999999999995
 20
-10.79
 11
13.99999999999999
 21
-10.79
 72
    1
 10
13.99999999999999
 20
-10.79
 11
14
 21
-1.5
 72
    1
 10
14
 20
-1.5
 11
20
 21
-1.5
 72
    1
 10
20
 20
-1.5
 11
20
 21
-10.79
 72
    1
 10
20
 20
-10.79
 11
24
 21
-10.79
 72
    1
 10
24
 20
-10.79
 11
24
 21
-1.5
 72
    1
 10
24
 20
-1.5
 11
30
 21
-1.5
 72
    1
 10
30
 20
-1.5
 11
30
 21
-10.79
 72
    1
 10
30
 20
-10.79
 11
34
 21
-10.79
 72
    1
 10
34
 20
-10.79
 11
34
 21
-1.5
 72
    1
 10
34.00000000000001
 20
-1.5
 11
40
 21
-1.5
 72
    1
 10
40
 20
-1.5
 11
40
 21
-10.79
 72
    1
 10
40
 20
-10.79
 11
44
 21
-10.79
 72
    1
 10
44
 20
-10.79
 11
44
 21
-1.5
 72
    1
 10
44.00000000000001
 20
-1.5
 11
50
 21
-1.5
 72
    1
 10
50
 20
-1.5
 11
50
 21
-10.79
 72
    1
 10
50
 20
-10.79
 11
54
 21
-10.79
 72
    1
 10
54
 20
-10.79
 11
54
 21
-1.5
 72
    1
 10
54.00000000000001
 20
-1.5
 11
60
 21
-1.5
 72
    1
 10
60
 20
-1.5
 11
60
 21
-10.79
 72
    1
 10
60
 20
-10.79
 11
64
 21
-10.79
 72
    1
 10
64
 20
-10.79
 11
64
 21
-1.5
 72
    1
 10
64.00000000000001
 20
-1.5
 11
70.00000000000001
 21
-1.5
 72
    1
 10
70.00000000000001
 20
-1.5
 11
70.00000000000001
 21
-10.79
 72
    1
 10
70.00000000000001
 20
-10.79
 11
74.00000000000001
 21
-10.79
 72
    1
 10
74.00000000000001
 20
-10.79
 11
74.00000000000001
 21
-1.5
 72
    1
 10
74.00000000000001
 20
-1.5
 11
80.00000000000001
 21
-1.5
 72
    1
 10
80.00000000000001
 20
-1.5
 11
80.00000000000001
 21
-10.79
 72
    1
 10
80.00000000000001
 20
-10.79
 11
84.00000000000001
 21
-10.79
 72
    1
 10
84.00000000000001
 20
-10.79
 11
84.00000000000001
 21
-1.5
 72
    1
 10
84.00000000000001
 20
-1.5
 11
90.00000000000001
 21
-1.5
 72
    1
 10
90.00000000000001
 20
-1.5
 11
90.00000000000001
 21
-10.79
 72
    1
 10
90.00000000000001
 20
-10.79
 11
94.00000000000001
 21
-10.79
 72
    1
 10
94.00000000000001
 20
-10.79
 11
94.00000000000001
 21
-1.5
 72
    1
 10
94.00000000000001
 20
-1.5
 11
100
 21
-1.5
 72
    1
 10
100
 20
-1.5
 11
100
 21
-10.79
 72
    1
 10
100
 20
-10.79
 11
104
 21
-10.79
 72
    1
 10
104
 20
-10.79
 11
104
 21
33.21
 72
    1
 10
104
 20
33.21
 11
100
 21
33.21
 72
    1
 10
100
 20
33.21
 11
100
 21
23.92
 72
    1
 10
100
 20
23.92
 11
94.00000000000001
 21
23.92
 72
    1
 10
94.00000000000001
 20
23.92
 11
94.00000000000001
 21
33.21
 72
    1
 10
94.00000000000001
 20
33.21
 11
90.00000000000001
 21
33.21
 72
    1
 10
90.00000000000001
 20
33.21
 11
90.00000000000001
 21
23.92
 72
    1
 10
90.00000000000001
 20
23.92
 11
84.00000000000001
 21
23.92
 72
    1
 10
84.00000000000001
 20
23.92
 11
84.00000000000001
 21
33.21
 72
    1
 10
84.00000000000001
 20
33.21
 11
80.00000000000001
 21
33.21
 72
    1
 10
80.00000000000001
 20
33.21
 11
80.00000000000001
 21
23.92
 72
    1
 10
80.00000000000001
 20
23.92
 11
74.00000000000001
 21
23.92
 72
    1
 10
74.00000000000001
 20
23.92
 11
74.00000000000001
 21
33.21
 72
    1
 10
74.00000000000001
 20
33.21
 11
70.00000000000001
 21
33.21
 72
    1
 10
70.00000000000001
 20
33.21
 11
70.00000000000001
 21
23.92
 72
    1
 10
70.00000000000001
 20
23.92
 11
64.00000000000001
 21
23.92
 72
    1
 10
64.00000000000001
 20
23.92
 11
64.00000000000001
 21
33.21
 72
    1
 10
64.00000000000001
 20
33.21
 11
60.00000000000001
 21
33.21
 72
    1
 10
60.00000000000001
 20
33.21
 11
60.00000000000001
 21
23.92
 72
    1
 10
60.00000000000001
 20
23.92
 11
54.00000000000001
 21
23.92
 72
    1
 10
54.00000000000001
 20
23.92
 11
54.00000000000001
 21
33.21
 72
    1
 10
54.00000000000001
 20
33.21
 11
50.00000000000001
 21
33.21
 72
    1
 10
50.00000000000001
 20
33.21
 11
50.00000000000001
 21
23.92
 72
    1
 10
50.00000000000001
 20
23.92
 11
44.00000000000001
 21
23.92
 72
    1
 10
44.00000000000001
 20
23.92
 11
44.00000000000001
 21
33.21
 72
    1
 10
44.00000000000001
 20
33.21
 11
40.00000000000001
 21
33.21
 72
    1
 10
40.00000000000001
 20
33.21
 11
40.00000000000001
 21
23.92
 72
    1
 10
40.00000000000001
 20
23.92
 11
34.00000000000001
 21
23.92
 72
    1
 10
34.00000000000001
 20
23.92
 11
34.00000000000001
 21
33.21
 72
    1
 10
34.00000000000001
 20
33.21
 11
30.00000000000001
 21
33.21
 72
    1
 10
30.00000000000001
 20
33.21
 11
30
 21
23.92
 72
    1
 10
30
 20
23.92
 11
24
 21
23.92
 72
    1
 10
24
 20
23.92
 11
24
 21
33.21
 72
    1
 10
24
 20
33.21
 11
20
 21
33.21
 72
    1
 10
20
 20
33.21
 11
20
 21
23.92
 72
    1
 10
20
 20
23.92
 11
14
 21
23.92
 72
    1
 10
14
 20
23.92
 11
14
 21
33.21
 72
    1
 10
14
 20
33.21
 11
10
 21
33.21
 72
    1
 10
10
 20
33.21
 11
10
 21
23.92
 72
    1
 10
10
 20
23.92
 11
4
 21
23.92
 72
    1
 10
4
 20
23.92
 11
4.000000000000002
 21
33.21
 72
    1
 10
4.000000000000002
 20
33.21
 11
1.77635683940025e-15
 21
33.21
 72
    1
 10
4
 20
22.42
 11
3.999999999999996
 21
0
 72
    1
 10
3.999999999999996
 20
0
 11
9.999999999999996
 21
0
 72
    1
 10
9.999999999999996
 20
0
 11
10
 21
22.42
 72
    1
 10
10
 20
22.42
 11
4
 21
22.42
 72
    1
 10
14
 20
22.42
 11
14
 21
0
 72
    1
 10
14
 20
0
 11
20
 21
0
 72
    1
 10
20
 20
0
 11
20
 21
22.42
 72
    1
 10
20
 20
22.42
 11
14
 21
22.42
 72
    1
 10
24
 20
22.42
 11
24
 21
0
 72
    1
 10
24
 20
0
 11
30
 21
0
 72
    1
 10
30
 20
0
 11
30
 21
22.42
 72
    1
 10
30
 20
22.42
 11
24
 21
22.42
 72
    1
 10
34.00000000000001
 20
22.42
 11
34
 21
0
 72
    1
 10
34.00000000000001
 20
0
 11
40
 21
0
 72
    1
 10
40
 20
0
 11
40.00000000000001
 21
22.42
 72
    1
 10
40.00000000000001
 20
22.42
 11
34.00000000000001
 21
22.42
 72
    1
 10
44.00000000000001
 20
22.42
 11
44
 21
0
 72
    1
 10
44.00000000000001
 20
0
 11
50
 21
0
 72
    1
 10
50
 20
0
 11
50.00000000000001
 21
22.42
 72
    1
 10
50.00000000000001
 20
22.42
 11
44.00000000000001
 21
22.42
 72
    1
 10
54.00000000000001
 20
22.42
 11
54
 21
0
 72
    1
 10
54.00000000000001
 20
0
 11
60
 21
0
 72
    1
 10
60
 20
0
 11
60.00000000000001
 21
22.42
 72
    1
 10
60.00000000000001
 20
22.42
 11
54.00000000000001
 21
22.42
 72
    1
 10
64.00000000000001
 20
22.42
 11
64
 21
0
 72
    1
 10
64.00000000000001
 20
0
 11
70.00000000000001
 21
0
 72
    1
 10
70.00000000000001
 20
0
 11
70.00000000000001
 21
22.42
 72
    1
 10
70.00000000000001
 20
22.42
 11
64.00000000000001
 21
22.42
 72
    1
 10
74.00000000000001
 20
22.42
 11
74.00000000000001
 21
0
 72
    1
 10
74.00000000000001
 20
0
 11
80.00000000000001
 21
0
 72
    1
 10
80.00000000000001
 20
0
 11
80.00000000000001
 21
22.42
 72
    1
 10
80.00000000000001
 20
22.42
 11
74.00000000000001
 21
22.42
 72
    1
 10
84.00000000000001
 20
22.42
 11
84.00000000000001
 21
0
 72
    1
 10
84.00000000000001
 20
0
 11
90.00000000000001
 21
0
 72
    1
 10
90.00000000000001
 20
0
 11
90.00000000000001
 21
22.42
 72
    1
 10
90.00000000000001
 20
22.42
 11
84.00000000000001
 21
22.42
 72
    1
 10
94.00000000000001
 20
22.42
 11
94.00000000000001
 21
0
 72
    1
 10
94.00000000000001
 20
0
 11
100
 21
0
 72
    1
 10
100
 20
0
 11
100
 21
22.42
 72
    1
 10
100
 20
22.42
 11
94.00000000000001
 21
22.42
 97
    0
 75
    0
 76
    1
 98
    0
  0
HATCH
  5
93
100
AcDbEntity
  8
voie
  6
ByLayer
 62
  256
370
   -1
100
AcDbHatch
 10
0
 20
0
 30
0
210
0
220
0
230
1
  2
SOLID
 70
    1
 71
    0
 91
    1
 92
    0
 93
   12
 72
    1
 10
0
 20
0
 11
45.5
 21
2.664535259100376e-15
 72
    1
 10
45.5
 20
2.664535259100376e-15
 11
45.5
 21
2.000000000000003
 72
    1
 10
45.5
 20
2.000000000000003
 11
36.21
 21
2.000000000000003
 72
    1
 10
36.21
 20
2.000000000000003
 11
36.21
 21
4.500000000000009
 72
    1
 10
36.21
 20
4.500000000000009
 11
34.71
 21
4.500000000000007
 72
    1
 10
34.71
 20
4.500000000000007
 11
34.71
 21
2.000000000000008
 72
    1
 10
34.71
 20
2.000000000000008
 11
10.79
 21
2
 72
    1
 10
10.79
 20
2
 11
10.79
 21
4.5
 72
    1
 10
10.79
 20
4.5
 11
9.289999999999999
 21
4.5
 72
    1
 10
9.289999999999999
 20
4.5
 11
9.289999999999999
 21
2
 72
    1
 10
9.289999999999999
 20
2
 11
0
 21
2
 72
    1
 10
0
 20
2
 11
0
 21
0
 97
    0
 75
    0
 76
    1
 98
    0
  0
LINE
  5
94
100
AcDbEntity
  8
voie
  6
ByLayer
 62
  256
370
   -1
100
AcDbLine
 10
0
 20
0
 11
45.5
 21
2.664535259100376e-15
  0
LINE
  5
95
100
AcDbEntity
  8
voie
  6
ByLayer
 62
  256
370
   -1
100
AcDbLine
 10
0
 20
2
 11
0
 21
0
  0
LINE
  5
96
100
AcDbEntity
  8
voie
  6
ByLayer
 62
  256
370
   -1
100
AcDbLine
 10
45.5
 20
2.000000000000003
 11
45.5
 21
2.664535259100376e-15
  0
LINE
  5
97
100
AcDbEntity
  8
voie
  6
ByLayer
 62
  256
370
   -1
100
AcDbLine
 10
0
 20
2
 11
9.289999999999999
 21
2
  0
LINE
  5
98
100
AcDbEntity
  8
voie
  6
ByLayer
 62
  256
370
   -1
100
AcDbLine
 10
36.21
 20
2.000000000000003
 11
45.5
 21
2.000000000000003
  0
LINE
  5
99
100
AcDbEntity
  8
voie
  6
ByLayer
 62
  256
370
   -1
100
AcDbLine
 10
10.79
 20
2
 11
34.71
 21
2.000000000000008
  0
LINE
  5
9A
100
AcDbEntity
  8
voie
  6
ByLayer
 62
  256
370
   -1
100
AcDbLine
 10
10.79
 20
2
 11
10.79
 21
4.5
  0
LINE
  5
9B
100
AcDbEntity
  8
voie
  6
ByLayer
 62
  256
370
   -1
100
AcDbLine
 10
9.289999999999999
 20
4.5
 11
9.289999999999999
 21
2
  0
LINE
  5
9C
100
AcDbEntity
  8
voie
  6
ByLayer
 62
  256
370
   -1
100
AcDbLine
 10
34.71
 20
4.500000000000007
 11
34.71
 21
2.000000000000008
  0
LINE
  5
9D
100
AcDbEntity
  8
voie
  6
ByLayer
 62
  256
370
   -1
100
AcDbLine
 10
36.21
 20
2.000000000000003
 11
36.21
 21
4.500000000000009
  0
LINE
  5
9E
100
AcDbEntity
  8
voie
  6
ByLayer
 62
  256
370
   -1
100
AcDbLine
 10
9.289999999999999
 20
4.5
 11
10.79
 21
4.5
  0
LINE
  5
9F
100
AcDbEntity
  8
voie
  6
ByLayer
 62
  256
370
   -1
100
AcDbLine
 10
34.71
 20
4.500000000000007
 11
36.21
 21
4.500000000000009
  0
DIMENSION
  5
A0
100
AcDbEntity
  8
voie
  6
ByLayer
 62
  256
370
   -1
100
AcDbDimension
 10
9.289999999999999
 20
5.941273659991859
 30
0
 11
4.645
 21
11.56627365999186
 31
0
 70
   32
 71
    5
 72
    0
  3
Standard
 53
0
210
0
220
0
230
1
100
AcDbAlignedDimension
 13
0
 23
2
 33
0
 14
9.289999999999999
 24
2
 34
0
100
AcDbRotatedDimension
  0
DIMENSION
  5
A1
100
AcDbEntity
  8
voie
  6
ByLayer
 62
  256
370
   -1
100
AcDbDimension
 10
10.79
 20
5.941273659991857
 30
0
 11
10.04
 21
11.56627365999186
 31
0
 70
   32
 71
    5
 72
    0
  3
Standard
 53
0
210
0
220
0
230
1
100
AcDbAlignedDimension
 13
9.289999999999999
 23
4.5
 33
0
 14
10.79
 24
4.5
 34
0
100
AcDbRotatedDimension
  0
DIMENSION
  5
A2
100
AcDbEntity
  8
voie
  6
ByLayer
 62
  256
370
   -1
100
AcDbDimension
 10
34.71
 20
5.941273659991857
 30
0
 11
22.75
 21
11.56627365999186
 31
0
 70
   32
 71
    5
 72
    0
  3
Standard
 53
0
210
0
220
0
230
1
100
AcDbAlignedDimension
 13
10.79
 23
4.5
 33
0
 14
34.71
 24
4.500000000000007
 34
0
100
AcDbRotatedDimension
  0
DIMENSION
  5
A3
100
AcDbEntity
  8
voie
  6
ByLayer
 62
  256
370
   -1
100
AcDbDimension
 10
36.21
 20
5.941273659991857
 30
0
 11
35.46
 21
11.56627365999186
 31
0
 70
   32
 71
    5
 72
    0
  3
Standard
 53
0
210
0
220
0
230
1
100
AcDbAlignedDimension
 13
34.71
 23
4.500000000000007
 33
0
 14
36.21
 24
4.500000000000009
 34
0
100
AcDbRotatedDimension
  0
DIMENSION
  5
A4
100
AcDbEntity
  8
voie
  6
ByLayer
 62
  256
370
   -1
100
AcDbDimension
 10
45.5
 20
5.941273659991856
 30
0
 11
40.855
 21
11.56627365999186
 31
0
 70
   32
 71
    5
 72
    0
  3
Standard
 53
0
210
0
220
0
230
1
100
AcDbAlignedDimension
 13
36.21
 23
4.500000000000009
 33
0
 14
45.5
 24
2.000000000000003
 34
0
100
AcDbRotatedDimension
  0
DIMENSION
  5
A5
100
AcDbEntity
  8
voie
  6
ByLayer
 62
  256
370
   -1
100
AcDbDimension
 10
45.5
 20
9.828773709122331
 30
0
 11
22.75
 21
15.45377370912233
 31
0
 70
   32
 71
    5
 72
    0
  3
Standard
 53
0
210
0
220
0
230
1
100
AcDbAlignedDimension
 13
0
 23
2
 33
0
 14
45.5
 24
2.000000000000003
 34
0
100
AcDbRotatedDimension
  0
DIMENSION
  5
A6
100
AcDbEntity
  8
voie
  6
ByLayer
 62
  256
370
   -1
100
AcDbDimension
 10
-6.014622717522622
 20
2
 30
0
 11
-11.63962271752262
 21
1.000000000000001
 31
0
 70
   32
 71
    5
 72
    0
  3
Standard
 53
0
210
0
220
0
230
1
100
AcDbAlignedDimension
 13
0
 23
0
 33
0
 14
0
 24
2
 34
0
 50
90
100
AcDbRotatedDimension
  0
DIMENSION
  5
A7
100
AcDbEntity
  8
voie
  6
ByLayer
 62
  256
370
   -1
100
AcDbDimension
 10
-3.2273585313536
 20
4.500000000000002
 30
0
 11
-8.8523585313536
 21
3.25
 31
0
 70
   32
 71
    5
 72
    0
  3
Standard
 53
0
210
0
220
0
230
1
100
AcDbAlignedDimension
 13
0
 23
2
 33
0
 14
9.289999999999999
 24
4.5
 34
0
 50
90
100
AcDbRotatedDimension
  0
LINE
  5
A8
100
AcDbEntity
  8
voie
  6
ByLayer
 62
  256
370
   -1
100
AcDbLine
 10
102
 20
23.92
 11
2.000000000000002
 21
23.92
  0
LINE
  5
A9
100
AcDbEntity
  8
voie
  6
ByLayer
 62
  256
370
   -1
100
AcDbLine
 10
102
 20
-1.5
 11
1.999999999999998
 21
-1.5
  0
LINE
  5
AA
100
AcDbEntity
  8
voie
  6
ByLayer
 62
  256
370
   -1
100
AcDbLine
 10
102
 20
23.92
 11
2.000000000000002
 21
23.92
  0
LINE
  5
AB
100
AcDbEntity
  8
voie
  6
ByLayer
 62
  256
370
   -1
100
AcDbLine
 10
102
 20
23.92
 11
2.000000000000002
 21
23.92
  0
LINE
  5
AC
100
AcDbEntity
  8
voie
  6
ByLayer
 62
  256
370
   -1
100
AcDbLine
 10
102
 20
23.92
 11
2.000000000000002
 21
23.92
  0
ENDBLK
  5
5E
330
5C
100
AcDbEntity
  8
0
100
AcDbBlockEnd
  0
BLOCK
  5
60
330
5F
100
AcDbEntity
  8
0
100
AcDbBlockBegin
  2
voie
 70
    0
 10
0
 20
0
  3
voie
  1

  0
HATCH
  5
AD
100
AcDbEntity
  8
voie
  6
ByLayer
 62
  256
370
   -1
100
AcDbHatch
 10
0
 20
0
 30
0
210
0
220
0
230
1
  2
SOLID
 70
    1
 71
    0
 91
    1
 92
    0
 93
   12
 72
    1
 10
0
 20
0
 11
45.5
 21
2.786071468060229e-15
 72
    1
 10
45.5
 20
2.786071468060229e-15
 11
45.5
 21
2.000000000000003
 72
    1
 10
45.5
 20
2.000000000000003
 11
36.21
 21
2.000000000000003
 72
    1
 10
36.21
 20
2.000000000000003
 11
36.21
 21
4.500000000000009
 72
    1
 10
36.21
 20
4.500000000000009
 11
34.71
 21
4.500000000000008
 72
    1
 10
34.71
 20
4.500000000000008
 11
34.71
 21
2.000000000000008
 72
    1
 10
34.71
 20
2.000000000000008
 11
10.79
 21
2.000000000000001
 72
    1
 10
10.79
 20
2.000000000000001
 11
10.79
 21
4.500000000000001
 72
    1
 10
10.79
 20
4.500000000000001
 11
9.289999999999999
 21
4.500000000000001
 72
    1
 10
9.289999999999999
 20
4.500000000000001
 11
9.289999999999999
 21
2
 72
    1
 10
9.289999999999999
 20
2
 11
1.224646799147353e-16
 21
2
 72
    1
 10
1.224646799147353e-16
 20
2
 11
0
 21
0
 97
    0
 75
    0
 76
    1
 98
    0
  0
LINE
  5
AE
100
AcDbEntity
  8
voie
  6
ByLayer
 62
  256
370
   -1
100
AcDbLine
 10
0
 20
0
 11
45.5
 21
2.786071468060229e-15
  0
LINE
  5
AF
100
AcDbEntity
  8
voie
  6
ByLayer
 62
  256
370
   -1
100
AcDbLine
 10
1.224646799147353e-16
 20
2
 11
0
 21
0
  0
LINE
  5
B0
100
AcDbEntity
  8
voie
  6
ByLayer
 62
  256
370
   -1
100
AcDbLine
 10
45.5
 20
2.000000000000003
 11
45.5
 21
2.786071468060229e-15
  0
LINE
  5
B1
100
AcDbEntity
  8
voie
  6
ByLayer
 62
  256
370
   -1
100
AcDbLine
 10
1.224646799147353e-16
 20
2
 11
9.289999999999999
 21
2
  0
LINE
  5
B2
100
AcDbEntity
  8
voie
  6
ByLayer
 62
  256
370
   -1
100
AcDbLine
 10
36.21
 20
2.000000000000003
 11
45.5
 21
2.000000000000003
  0
LINE
  5
B3
100
AcDbEntity
  8
voie
  6
ByLayer
 62
  256
370
   -1
100
AcDbLine
 10
10.79
 20
2.000000000000001
 11
34.71
 21
2.000000000000008
  0
LINE
  5
B4
100
AcDbEntity
  8
voie
  6
ByLayer
 62
  256
370
   -1
100
AcDbLine
 10
10.79
 20
2.000000000000001
 11
10.79
 21
4.500000000000001
  0
LINE
  5
B5
100
AcDbEntity
  8
voie
  6
ByLayer
 62
  256
370
   -1
100
AcDbLine
 10
9.289999999999999
 20
4.500000000000001
 11
9.289999999999999
 21
2
  0
LINE
  5
B6
100
AcDbEntity
  8
voie
  6
ByLayer
 62
  256
370
   -1
100
AcDbLine
 10
34.71
 20
4.500000000000008
 11
34.71
 21
2.000000000000008
  0
LINE
  5
B7
100
AcDbEntity
  8
voie
  6
ByLayer
 62
  256
370
   -1
100
AcDbLine
 10
36.21
 20
2.000000000000003
 11
36.21
 21
4.500000000000009
  0
LINE
  5
B8
100
AcDbEntity
  8
voie
  6
ByLayer
 62
  256
370
   -1
100
AcDbLine
 10
9.289999999999999
 20
4.500000000000001
 11
10.79
 21
4.500000000000001
  0
LINE
  5
B9
100
AcDbEntity
  8
voie
  6
ByLayer
 62
  256
370
   -1
100
AcDbLine
 10
34.71
 20
4.500000000000008
 11
36.21
 21
4.500000000000009
  0
ENDBLK
  5
61
330
5F
100
AcDbEntity
  8
0
100
AcDbBlockEnd
  0
BLOCK
  5
63
330
62
100
AcDbEntity
  8
0
100
AcDbBlockBegin
  2
_wheel
 70
    0
 10
0
 20
0
  3
_wheel
  1

  0
HATCH
  5
BA
100
AcDbEntity
  8
0
  6
ByLayer
 62
  256
370
   -1
100
AcDbHatch
 10
0
 20
0
 30
0
210
0
220
0
230
1
  2
SOLID
 70
    1
 71
    0
 91
    1
 92
    0
 93
   14
 72
    1
 10
0
 20
1.5
 11
4
 21
1.5
 72
    1
 10
4
 20
1.5
 11
3.995581713715062
 21
2.028456240141283
 72
    2
 10
5.398865457614811
 20
3.378007531809466
 40
1.946919093012483
 50
136.1182115195917
 51
224.0690542579752
 73
    0
 72
    1
 10
4.000000080494321
 20
4.732138105805232
 11
3.998988286991366
 21
5.256644041366272
 72
    1
 10
3.998988286991366
 20
5.256644041366272
 11
3.47592627563245
 21
5.5817634241101
 72
    1
 10
3.47592627563245
 20
5.5817634241101
 11
2.967749933221441
 21
5.764706907378064
 72
    1
 10
2.967749933221441
 20
5.764706907378064
 11
1.382239744899088
 21
6.150920927610434
 72
    1
 10
1.382239744899088
 20
6.150920927610434
 11
1.166327380681167
 21
6.396432396096795
 72
    1
 10
1.166327380681167
 20
6.396432396096795
 11
1.045740725974191
 21
6.674090493160123
 72
    1
 10
1.045740725974191
 20
6.674090493160123
 11
1.005776112242692
 21
6.853931254951863
 72
    1
 10
1.005776112242692
 20
6.853931254951863
 11
1
 21
7
 72
    2
 10
0.5
 20
7
 40
0.5
 50
0
 51
90
 73
    1
 72
    1
 10
0.5
 20
7.5
 11
0
 21
7.5
 72
    1
 10
0
 20
7.5
 11
0
 21
1.5
 97
    0
 75
    0
 76
    1
 98
    0
  0
HATCH
  5
BB
100
AcDbEntity
  8
0
  6
ByLayer
 62
  256
370
   -1
100
AcDbHatch
 10
0
 20
0
 30
0
210
0
220
0
230
1
  2
SOLID
 70
    1
 71
    0
 91
    1
 92
    0
 93
   14
 72
    1
 10
0
 20
-1.5
 11
4
 21
-1.5
 72
    1
 10
4
 20
-1.5
 11
3.995581713715062
 21
-2.028456240141283
 72
    2
 10
5.398865457614811
 20
-3.378007531809466
 40
1.946919093012483
 50
136.1182115195917
 51
224.0690542579752
 73
    1
 72
    1
 10
4.000000080494321
 20
-4.732138105805232
 11
3.998988286991366
 21
-5.256644041366272
 72
    1
 10
3.998988286991366
 20
-5.256644041366272
 11
3.47592627563245
 21
-5.581763424110099
 72
    1
 10
3.47592627563245
 20
-5.581763424110099
 11
2.967749933221441
 21
-5.764706907378065
 72
    1
 10
2.967749933221441
 20
-5.764706907378065
 11
1.382239744899088
 21
-6.150920927610434
 72
    1
 10
1.382239744899088
 20
-6.150920927610434
 11
1.166327380681167
 21
-6.396432396096797
 72
    1
 10
1.166327380681167
 20
-6.396432396096797
 11
1.045740725974191
 21
-6.674090493160124
 72
    1
 10
1.045740725974191
 20
-6.674090493160124
 11
1.005776112242692
 21
-6.853931254951865
 72
    1
 10
1.005776112242692
 20
-6.853931254951865
 11
1
 21
-6.999999999999998
 72
    2
 10
0.5
 20
-6.999999999999998
 40
0.5
 50
360
 51
90
 73
    0
 72
    1
 10
0.5
 20
-7.499999999999998
 11
0
 21
-7.499999999999998
 72
    1
 10
0
 20
-7.499999999999998
 11
0
 21
-1.5
 97
    0
 75
    0
 76
    1
 98
    0
  0
LINE
  5
BC
100
AcDbEntity
  8
0
  6
ByLayer
 62
  256
370
   -1
100
AcDbLine
 10
0
 20
1.5
 11
4
 21
1.5
  0
LINE
  5
BD
100
AcDbEntity
  8
0
  6
ByLayer
 62
  256
370
   -1
100
AcDbLine
 10
0
 20
7.5
 11
0
 21
1.5
  0
ARC
  5
BE
100
AcDbEntity
  8
0
  6
ByLayer
 62
  256
370
   -1
100
AcDbCircle
 10
0.5
 20
7
 40
0.5
100
AcDbArc
 50
0
 51
90
  0
LINE
  5
BF
100
AcDbEntity
  8
0
  6
ByLayer
 62
  256
370
   -1
100
AcDbLine
 10
0.5
 20
7.5
 11
0
 21
7.5
  0
ARC
  5
C0
100
AcDbEntity
  8
0
  6
ByLayer
 62
  256
370
   -1
100
AcDbCircle
 10
5.398865457614811
 20
3.378007531809466
 40
1.946919093012483
100
AcDbArc
 50
135.9309457420248
 51
223.8817884804083
  0
LINE
  5
C1
100
AcDbEntity
  8
0
  6
ByLayer
 62
  256
370
   -1
100
AcDbLine
 10
4.000000080494321
 20
4.732138105805232
 11
3.998988286991366
 21
5.256644041366272
  0
LINE
  5
C2
100
AcDbEntity
  8
0
  6
ByLayer
 62
  256
370
   -1
100
AcDbLine
 10
3.995581713715062
 20
2.028456240141283
 11
4
 21
1.5
  0
LINE
  5
C3
100
AcDbEntity
  8
0
  6
ByLayer
 62
  256
370
   -1
100
AcDbLine
 10
1
 20
7
 11
1.005776112242692
 21
6.853931254951863
  0
LINE
  5
C4
100
AcDbEntity
  8
0
  6
ByLayer
 62
  256
370
   -1
100
AcDbLine
 10
1.005776112242692
 20
6.853931254951863
 11
1.045740725974191
 21
6.674090493160123
  0
LINE
  5
C5
100
AcDbEntity
  8
0
  6
ByLayer
 62
  256
370
   -1
100
AcDbLine
 10
1.045740725974191
 20
6.674090493160123
 11
1.166327380681167
 21
6.396432396096795
  0
LINE
  5
C6
100
AcDbEntity
  8
0
  6
ByLayer
 62
  256
370
   -1
100
AcDbLine
 10
1.166327380681167
 20
6.396432396096795
 11
1.382239744899088
 21
6.150920927610434
  0
LINE
  5
C7
100
AcDbEntity
  8
0
  6
ByLayer
 62
  256
370
   -1
100
AcDbLine
 10
1.382239744899088
 20
6.150920927610434
 11
2.967749933221441
 21
5.764706907378064
  0
LINE
  5
C8
100
AcDbEntity
  8
0
  6
ByLayer
 62
  256
370
   -1
100
AcDbLine
 10
3.47592627563245
 20
5.5817634241101
 11
3.998988286991366
 21
5.256644041366272
  0
LINE
  5
C9
100
AcDbEntity
  8
0
  6
ByLayer
 62
  256
370
   -1
100
AcDbLine
 10
2.967749933221441
 20
5.764706907378064
 11
3.47592627563245
 21
5.5817634241101
  0
LINE
  5
CA
100
AcDbEntity
  8
0
  6
ByLayer
 62
  256
370
   -1
100
AcDbLine
 10
0
 20
-1.5
 11
4
 21
-1.5
  0
LINE
  5
CB
100
AcDbEntity
  8
0
  6
ByLayer
 62
  256
370
   -1
100
AcDbLine
 10
0
 20
-7.499999999999998
 11
0
 21
-1.5
  0
ARC
  5
CC
100
AcDbEntity
  8
0
  6
ByLayer
 62
  256
370
   -1
100
AcDbCircle
 10
0.5
 20
-6.999999999999998
 40
0.5
100
AcDbArc
 50
270
 51
0
  0
LINE
  5
CD
100
AcDbEntity
  8
0
  6
ByLayer
 62
  256
370
   -1
100
AcDbLine
 10
0.5
 20
-7.499999999999998
 11
0
 21
-7.499999999999998
  0
ARC
  5
CE
100
AcDbEntity
  8
0
  6
ByLayer
 62
  256
370
   -1
100
AcDbCircle
 10
5.398865457614811
 20
-3.378007531809466
 40
1.946919093012483
100
AcDbArc
 50
136.1182115195917
 51
224.0690542579752
  0
LINE
  5
CF
100
AcDbEntity
  8
0
  6
ByLayer
 62
  256
370
   -1
100
AcDbLine
 10
4.000000080494321
 20
-4.732138105805232
 11
3.998988286991366
 21
-5.256644041366272
  0
LINE
  5
D0
100
AcDbEntity
  8
0
  6
ByLayer
 62
  256
370
   -1
100
AcDbLine
 10
3.995581713715062
 20
-2.028456240141283
 11
4
 21
-1.5
  0
LINE
  5
D1
100
AcDbEntity
  8
0
  6
ByLayer
 62
  256
370
   -1
100
AcDbLine
 10
1
 20
-6.999999999999998
 11
1.005776112242692
 21
-6.853931254951865
  0
LINE
  5
D2
100
AcDbEntity
  8
0
  6
ByLayer
 62
  256
370
   -1
100
AcDbLine
 10
1.005776112242692
 20
-6.853931254951865
 11
1.045740725974191
 21
-6.674090493160124
  0
LINE
  5
D3
100
AcDbEntity
  8
0
  6
ByLayer
 62
  256
370
   -1
100
AcDbLine
 10
1.045740725974191
 20
-6.674090493160124
 11
1.166327380681167
 21
-6.396432396096797
  0
LINE
  5
D4
100
AcDbEntity
  8
0
  6
ByLayer
 62
  256
370
   -1
100
AcDbLine
 10
1.166327380681167
 20
-6.396432396096797
 11
1.382239744899088
 21
-6.150920927610434
  0
LINE
  5
D5
100
AcDbEntity
  8
0
  6
ByLayer
 62
  256
370
   -1
100
AcDbLine
 10
1.382239744899088
 20
-6.150920927610434
 11
2.967749933221441
 21
-5.764706907378065
  0
LINE
  5
D6
100
AcDbEntity
  8
0
  6
ByLayer
 62
  256
370
   -1
100
AcDbLine
 10
3.47592627563245
 20
-5.581763424110099
 11
3.998988286991366
 21
-5.256644041366272
  0
LINE
  5
D7
100
AcDbEntity
  8
0
  6
ByLayer
 62
  256
370
   -1
100
AcDbLine
 10
2.967749933221441
 20
-5.764706907378065
 11
3.47592627563245
 21
-5.581763424110099
  0
ENDBLK
  5
64
330
62
100
AcDbEntity
  8
0
100
AcDbBlockEnd
  0
ENDSEC
  0
SECTION
  2
ENTITIES
  0
HATCH
  5
D8
100
AcDbEntity
  8
test
  6
ByLayer
 62
  256
370
   -1
100
AcDbHatch
 10
0
 20
0
 30
0
210
0
220
0
230
1
  2
SOLID
 70
    1
 71
    0
 91
    1
 92
    0
 93
    4
 72
    1
 10
8.503004597302201
 20
12.11586956455744
 11
8.503004597302201
 21
9.115869564557441
 72
    1
 10
8.503004597302201
 20
9.115869564557441
 11
6.503004597302201
 21
9.115869564557441
 72
    1
 10
6.503004597302201
 20
9.115869564557441
 11
6.503004597302201
 21
12.11586956455744
 72
    1
 10
6.503004597302201
 20
12.11586956455744
 11
8.503004597302201
 21
12.11586956455744
 97
    0
 75
    0
 76
    1
 98
    0
  0
HATCH
  5
D9
100
AcDbEntity
  8
test
  6
ByLayer
 62
  256
370
   -1
100
AcDbHatch
 10
0
 20
0
 30
0
210
0
220
0
230
1
  2
SOLID
 70
    1
 71
    0
 91
    1
 92
    0
 93
    4
 72
    1
 10
36.9969954026978
 20
12.11586956455744
 11
36.9969954026978
 21
9.115869564557444
 72
    1
 10
36.9969954026978
 20
9.115869564557444
 11
38.9969954026978
 21
9.115869564557444
 72
    1
 10
38.9969954026978
 20
9.115869564557444
 11
38.9969954026978
 21
12.11586956455744
 72
    1
 10
38.9969954026978
 20
12.11586956455744
 11
36.9969954026978
 21
12.11586956455744
 97
    0
 75
    0
 76
    1
 98
    0
  0
ARC
  5
DA
100
AcDbEntity
  8
0
  6
ByLayer
 62
  256
370
   -1
100
AcDbCircle
 10
0
 20
0
 40
3.6
100
AcDbArc
 50
90
 51
270
  0
INSERT
  5
DB
100
AcDbEntity
  8
test
  6
ByLayer
 62
  256
370
   -1
100
AcDbBlockReference
  2
voie
 10
0
 20
0
 30
0
 41
1
 42
1
 43
0
 50
0
 70
    1
 71
    1
 44
0
 45
0
  0
INSERT
  5
DC
100
AcDbEntity
  8
test
  6
ByLayer
 62
  256
370
   -1
100
AcDbBlockReference
  2
_wheel
 10
32.7969954026978
 20
10.61586956455744
 30
0
 41
1
 42
1
 43
0
 50
0
 70
    1
 71
    1
 44
0
 45
0
  0
INSERT
  5
DD
100
AcDbEntity
  8
test
  6
ByLayer
 62
  256
370
   -1
100
AcDbBlockReference
  2
_wheel
 10
12.7030045973022
 20
10.61586956455745
 30
0
 41
-1
 42
1
 43
0
 50
0
 70
    1
 71
    1
 44
0
 45
0
  0
LINE
  5
DE
100
AcDbEntity
  8
test
  6
ByLayer
 62
  256
370
   -1
100
AcDbLine
 10
36.9969954026978
 20
12.11586956455744
 11
36.9969954026978
 21
9.115869564557444
  0
LINE
  5
DF
100
AcDbEntity
  8
test
  6
ByLayer
 62
  256
370
   -1
100
AcDbLine
 10
38.9969954026978
 20
12.11586956455744
 11
38.9969954026978
 21
9.115869564557444
  0
LINE
  5
E0
100
AcDbEntity
  8
test
  6
ByLayer
 62
  256
370
   -1
100
AcDbLine
 10
36.9969954026978
 20
12.11586956455744
 11
38.9969954026978
 21
12.11586956455744
  0
LINE
  5
E1
100
AcDbEntity
  8
test
  6
ByLayer
 62
  256
370
   -1
100
AcDbLine
 10
38.9969954026978
 20
9.115869564557444
 11
36.9969954026978
 21
9.115869564557444
  0
LINE
  5
E2
100
AcDbEntity
  8
test
  6
ByLayer
 62
  256
370
   -1
100
AcDbLine
 10
8.503004597302201
 20
12.11586956455744
 11
8.503004597302201
 21
9.115869564557441
  0
LINE
  5
E3
100
AcDbEntity
  8
test
  6
ByLayer
 62
  256
370
   -1
100
AcDbLine
 10
6.503004597302201
 20
12.11586956455744
 11
6.503004597302201
 21
9.115869564557441
  0
LINE
  5
E4
100
AcDbEntity
  8
test
  6
ByLayer
 62
  256
370
   -1
100
AcDbLine
 10
8.503004597302201
 20
12.11586956455744
 11
6.503004597302201
 21
12.11586956455744
  0
LINE
  5
E5
100
AcDbEntity
  8
test
  6
ByLayer
 62
  256
370
   -1
100
AcDbLine
 10
6.503004597302201
 20
9.115869564557441
 11
8.503004597302201
 21
9.115869564557441
  0
DIMENSION
  5
E6
100
AcDbEntity
  8
test
  6
ByLayer
 62
  256
370
   -1
100
AcDbDimension
  2
*D1
 10
34.71
 20
-5.003813612059586
 30
0
 11
22.75
 21
-2.191313612059586
 31
0
 70
   32
 71
    5
  3
Standard
 53
0
210
0
220
0
230
1
100
AcDbAlignedDimension
 13
10.79
 23
2.000000000000001
 33
0
 14
34.71
 24
2.000000000000008
 34
0
100
AcDbRotatedDimension
  0
DIMENSION
  5
E7
100
AcDbEntity
  8
test
  6
ByLayer
 62
  256
370
   -1
100
AcDbDimension
  2
*D2
 10
36.9969954026978
 20
-12.25423741728878
 30
0
 11
22.75
 21
-9.441737417288779
 31
0
 70
   32
 71
    5
  3
Standard
 53
0
210
0
220
0
230
1
100
AcDbAlignedDimension
 13
8.503004597302201
 23
10.61586956455744
 33
0
 14
36.9969954026978
 24
10.61586956455744
 34
0
100
AcDbRotatedDimension
  0
DIMENSION
  5
E8
100
AcDbEntity
  8
test
  6
ByLayer
 62
  256
370
   -1
100
AcDbDimension
  2
*D3
 10
32.7969954026978
 20
9.115869564557444
 30
0
 11
22.75
 21
11.92836956455744
 31
0
 70
   32
 71
    5
  3
Standard
 53
0
210
0
220
0
230
1
100
AcDbAlignedDimension
 13
12.7030045973022
 23
9.115869564557448
 33
0
 14
32.7969954026978
 24
9.115869564557444
 34
0
100
AcDbRotatedDimension
  0
ARC
  5
E9
100
AcDbEntity
  8
0
  6
ByLayer
 62
  256
370
   -1
100
AcDbCircle
 10
20.5
 20
-2.220446049250313e-16
 40
3.6
100
AcDbArc
 50
269.9999999999999
 51
90
  0
LINE
  5
EA
100
AcDbEntity
  8
0
  6
ByLayer
 62
  256
370
   -1
100
AcDbLine
 10
2.204364238465236e-16
 20
3.6
 11
20.5
 21
3.6
  0
LINE
  5
EB
100
AcDbEntity
  8
0
  6
ByLayer
 62
  256
370
   -1
100
AcDbLine
 10
-6.613092715395707e-16
 20
-3.6
 11
20.49999999999999
 21
-3.600000000000001
  0
LINE
  5
EC
100
AcDbEntity
  8
top
  6
ByLayer
 62
  256
370
   -1
100
AcDbLine
 10
7.749999999999999
 20
5.551115123125784e-16
 11
12.75
 21
-7.771561172376097e-16
  0
LINE
  5
ED
100
AcDbEntity
  8
top
  6
ByLayer
 62
  256
370
   -1
100
AcDbLine
 10
7.750000000000008
 20
28.49
 11
12.75000000000001
 21
28.49
  0
CIRCLE
  5
EE
100
AcDbEntity
  8
top
  6
ByLayer
 62
  256
370
   -1
100
AcDbCircle
 10
10.25
 20
14.245
 40
1.6
  0
ARC
  5
EF
100
AcDbEntity
  8
top
  6
ByLayer
 62
  256
370
   -1
100
AcDbCircle
 10
10.25
 20
14.245
 40
3.6
100
AcDbArc
 50
133.9829631303586
 51
226.0170368696414
  0
ARC
  5
F0
100
AcDbEntity
  8
top
  6
ByLayer
 62
  256
370
   -1
100
AcDbCircle
 10
10.25
 20
14.245
 40
3.6
100
AcDbArc
 50
313.9829631303586
 51
405.0000000000001
  0
LINE
  5
F1
100
AcDbEntity
  8
top
  6
ByLayer
 62
  256
370
   -1
100
AcDbLine
 10
7.750000000000008
 20
28.49
 11
7.750000000000008
 21
16.83536676939773
  0
LINE
  5
F2
100
AcDbEntity
  8
top
  6
ByLayer
 62
  256
370
   -1
100
AcDbLine
 10
7.750000000000007
 20
11.65463323060227
 11
7.749999999999999
 21
5.551115123125784e-16
  0
LINE
  5
F3
100
AcDbEntity
  8
top
  6
ByLayer
 62
  256
370
   -1
100
AcDbLine
 10
12.75000000000001
 20
28.49
 11
12.79558441227157
 21
16.79058441227157
  0
LINE
  5
F4
100
AcDbEntity
  8
top
  6
ByLayer
 62
  256
370
   -1
100
AcDbLine
 10
12.75
 20
11.65463323060227
 11
12.75
 21
-7.771561172376097e-16
  0
ENDSEC
  0
SECTION
  2
OBJECTS
  0
DICTIONARY
  5
C
330
0
100
AcDbDictionary
281
    1
  3
ACAD_GROUP
350
D
  0
DICTIONARY
  5
D
330
C
100
AcDbDictionary
281
    1
  0
ENDSEC
  0
EOF
