999
dxfrw 0.6.3
  0
SECTION
  2
HEADER
  9
$ACADVER
  1
AC1021
  9
$DWGCODEPAGE
  3
ANSI_1252
  9
$INSBASE
 10
0
 20
0
 30
0
  9
$EXTMIN
 10
42.04703880216772
 20
-203.5355339059324
 30
0
  9
$EXTMAX
 10
206.2903233394036
 20
72.9604426089677
 30
0
  9
$LIMMIN
 10
0
 20
0
  9
$LIMMAX
 10
420
 20
297
  9
$ORTHOMODE
 70
    0
  9
$REGENMODE
 70
    1
  9
$FILLMODE
 70
    1
  9
$QTEXTMODE
 70
    0
  9
$MIRRTEXT
 70
    0
  9
$LTSCALE
 40
1
  9
$ATTMODE
 70
    0
  9
$TEXTSIZE
 40
2.5
  9
$TRACEWID
 40
15.68
  9
$TEXTSTYLE
  7
STANDARD
  9
$CLAYER
  8
cotes2
  9
$CELTYPE
  6
BYLAYER
  9
$CECOLOR
 62
  256
  9
$CELTSCALE
 40
1
  9
$DISPSILH
 70
    0
  9
$DIMSCALE
 40
1
  9
$DIMASZ
 40
10
  9
$DIMEXO
 40
5
  9
$DIMDLI
 40
3.75
  9
$DIMRND
 40
0
  9
$DIMDLE
 40
0
  9
$DIMEXE
 40
5
  9
$DIMTP
 40
0
  9
$DIMTM
 40
0
  9
$DIMTXT
 40
10
  9
$DIMCEN
 40
2.5
  9
$DIMTSZ
 40
5
  9
$DIMTOL
 70
    0
  9
$DIMLIM
 70
    0
  9
$DIMTIH
 70
    0
  9
$DIMTOH
 70
    0
  9
$DIMSE1
 70
    0
  9
$DIMSE2
 70
    0
  9
$DIMTAD
 70
    1
  9
$DIMZIN
 70
    1
  9
$DIMBLK
  1

  9
$DIMASO
 70
    1
  9
$DIMSHO
 70
    1
  9
$DIMPOST
  1

  9
$DIMAPOST
  1

  9
$DIMALT
 70
    0
  9
$DIMALTD
 70
    3
  9
$DIMALTF
 40
0.03937
  9
$DIMLFAC
 40
1
  9
$DIMTOFL
 70
    1
  9
$DIMTVP
 40
0
  9
$DIMTIX
 70
    0
  9
$DIMSOXD
 70
    0
  9
$DIMSAH
 70
    0
  9
$DIMBLK1
  1

  9
$DIMBLK2
  1

  9
$DIMSTYLE
  2
STANDARD
  9
$DIMCLRD
 70
    0
  9
$DIMCLRE
 70
    0
  9
$DIMCLRT
 70
    0
  9
$DIMTFAC
 40
1
  9
$DIMGAP
 40
0.625
  9
$DIMJUST
 70
    0
  9
$DIMSD1
 70
    0
  9
$DIMSD2
 70
    0
  9
$DIMTOLJ
 70
    0
  9
$DIMTZIN
 70
    8
  9
$DIMALTZ
 70
    0
  9
$DIMALTTZ
 70
    0
  9
$DIMUPT
 70
    0
  9
$DIMDEC
 70
    2
  9
$DIMTDEC
 70
    2
  9
$DIMALTU
 70
    2
  9
$DIMALTTD
 70
    3
  9
$DIMTXSTY
  7
standard
  9
$DIMAUNIT
 70
    0
  9
$DIMADEC
 70
    2
  9
$DIMALTRND
 40
0
  9
$DIMAZIN
 70
    0
  9
$DIMDSEP
 70
    0
  9
$DIMATFIT
 70
    3
  9
$DIMFRAC
 70
    0
  9
$DIMLDRBLK
  1
STANDARD
  9
$DIMLUNIT
 70
    2
  9
$DIMLWD
 70
   35
  9
$DIMLWE
 70
   -2
  9
$DIMTMOVE
 70
    0
  9
$DIMFXL
 40
1
  9
$DIMFXLON
 70
    0
  9
$DIMJOGANG
 40
0.7854
  9
$DIMTFILL
 70
    0
  9
$DIMTFILLCLR
 70
    0
  9
$DIMARCSYM
 70
    0
  9
$DIMLTYPE
  6

  9
$DIMLTEX1
  6

  9
$DIMLTEX2
  6

  9
$LUNITS
 70
    2
  9
$LUPREC
 70
    4
  9
$SKETCHINC
 40
1
  9
$FILLETRAD
 40
0
  9
$AUNITS
 70
    0
  9
$AUPREC
 70
    2
  9
$MENU
  1
.
  9
$ELEVATION
 40
0
  9
$PELEVATION
 40
0
  9
$THICKNESS
 40
0
  9
$LIMCHECK
 70
    0
  9
$CHAMFERA
 40
0
  9
$CHAMFERB
 40
0
  9
$CHAMFERC
 40
0
  9
$CHAMFERD
 40
0
  9
$SKPOLY
 70
    0
  9
$USRTIMER
 70
    1
  9
$ANGBASE
 50
0
  9
$ANGDIR
 70
    0
  9
$PDMODE
 70
   34
  9
$PDSIZE
 40
0
  9
$PLINEWID
 40
0
  9
$SPLFRAME
 70
    0
  9
$SPLINETYPE
 70
    2
  9
$SPLINESEGS
 70
    8
  9
$HANDSEED
  5
20000
  9
$SURFTAB1
 70
    6
  9
$SURFTAB2
 70
    6
  9
$SURFTYPE
 70
    6
  9
$SURFU
 70
    6
  9
$SURFV
 70
    6
  9
$UCSBASE
  2

  9
$UCSNAME
  2

  9
$UCSORG
 10
0
 20
0
 30
0
  9
$UCSXDIR
 10
1
 20
0
 30
0
  9
$UCSYDIR
 10
0
 20
1
 30
0
  9
$UCSORTHOREF
  2

  9
$UCSORTHOVIEW
 70
    0
  9
$UCSORGTOP
 10
0
 20
0
 30
0
  9
$UCSORGBOTTOM
 10
0
 20
0
 30
0
  9
$UCSORGLEFT
 10
0
 20
0
 30
0
  9
$UCSORGRIGHT
 10
0
 20
0
 30
0
  9
$UCSORGFRONT
 10
0
 20
0
 30
0
  9
$UCSORGBACK
 10
0
 20
0
 30
0
  9
$PUCSBASE
  2

  9
$PUCSNAME
  2

  9
$PUCSORG
 10
0
 20
0
 30
0
  9
$PUCSXDIR
 10
1
 20
0
 30
0
  9
$PUCSYDIR
 10
0
 20
1
 30
0
  9
$PUCSORTHOREF
  2

  9
$PUCSORTHOVIEW
 70
    0
  9
$PUCSORGTOP
 10
0
 20
0
 30
0
  9
$PUCSORGBOTTOM
 10
0
 20
0
 30
0
  9
$PUCSORGLEFT
 10
0
 20
0
 30
0
  9
$PUCSORGRIGHT
 10
0
 20
0
 30
0
  9
$PUCSORGFRONT
 10
0
 20
0
 30
0
  9
$PUCSORGBACK
 10
0
 20
0
 30
0
  9
$USERI1
 70
    0
  9
$USERI2
 70
    0
  9
$USERI3
 70
    0
  9
$USERI4
 70
    0
  9
$USERI5
 70
    0
  9
$USERR1
 40
0
  9
$USERR2
 40
0
  9
$USERR3
 40
0
  9
$USERR4
 40
0
  9
$USERR5
 40
0
  9
$WORLDVIEW
 70
    1
  9
$SHADEDGE
 70
    3
  9
$SHADEDIF
 70
   70
  9
$TILEMODE
 70
    1
  9
$MAXACTVP
 70
   64
  9
$PINSBASE
 10
-17.14963008488357
 20
212.7259342802055
 30
0
  9
$PLIMCHECK
 70
    0
  9
$PEXTMIN
 10
0
 20
0
 30
0
  9
$PEXTMAX
 10
0
 20
0
 30
0
  9
$GRIDMODE
 70
    1
  9
$SNAPSTYLE
 70
    0
  9
$GRIDUNIT
 10
0
 20
0
  9
$PLIMMIN
 10
0
 20
0
  9
$PLIMMAX
 10
210
 20
297
  9
$UNITMODE
 70
    0
  9
$VISRETAIN
 70
    1
  9
$PLINEGEN
 70
    0
  9
$PSLTSCALE
 70
    1
  9
$TREEDEPTH
 70
 3020
  9
$CMLSTYLE
  2
Standard
  9
$CMLJUST
 70
    0
  9
$CMLSCALE
 40
20
  9
$PROXYGRAPHICS
 70
    1
  9
$MEASUREMENT
 70
    1
  9
$CELWEIGHT
370
   -1
  9
$ENDCAPS
280
    0
  9
$JOINSTYLE
280
    0
  9
$LWDISPLAY
290
    0
  9
$INSUNITS
 70
    4
  9
$HYPERLINKBASE
  1

  9
$STYLESHEET
  1

  9
$XEDIT
290
    1
  9
$CEPSNTYPE
380
    0
  9
$PSTYLEMODE
290
    1
  9
$EXTNAMES
290
    1
  9
$PSVPSCALE
 40
0.9837387976744415
  9
$OLESTARTUP
290
    0
  9
$SORTENTS
280
  127
  9
$INDEXCTL
280
    0
  9
$HIDETEXT
280
    1
  9
$XCLIPFRAME
290
    0
  9
$HALOGAP
280
    0
  9
$OBSCOLOR
 70
  257
  9
$OBSLTYPE
280
    0
  9
$INTERSECTIONDISPLAY
280
    0
  9
$INTERSECTIONCOLOR
 70
  257
  9
$DIMASSOC
280
    1
  9
$PROJECTNAME
  1

  9
$CAMERADISPLAY
290
    0
  9
$LENSLENGTH
 40
50
  9
$CAMERAHEIGHT
 40
0
  9
$STEPSPERSEC
 40
2
  9
$STEPSIZE
 40
50
  9
$3DDWFPREC
 40
2
  9
$PSOLWIDTH
 40
5
  9
$PSOLHEIGHT
 40
80
  9
$LOFTANG1
 40
1.570796326794897
  9
$LOFTANG2
 40
1.570796326794897
  9
$LOFTMAG1
 40
0
  9
$LOFTMAG2
 40
0
  9
$LOFTPARAM
 70
    7
  9
$LOFTNORMALS
280
    1
  9
$LATITUDE
 40
1
  9
$LONGITUDE
 40
1
  9
$NORTHDIRECTION
 40
0
  9
$TIMEZONE
 70
-8000
  9
$LIGHTGLYPHDISPLAY
280
    1
  9
$TILEMODELIGHTSYNCH
280
    1
  9
$SOLIDHIST
280
    1
  9
$SHOWHIST
280
    1
  9
$DWFFRAME
280
    2
  9
$DGNFRAME
280
    0
  9
$REALWORLDSCALE
290
    1
  9
$INTERFERECOLOR
 62
    1
  9
$CSHADOW
280
    0
  9
$SHADOWPLANELOCATION
 40
0
  0
ENDSEC
  0
SECTION
  2
CLASSES
  0
ENDSEC
  0
SECTION
  2
TABLES
  0
TABLE
  2
VPORT
  5
8
330
0
100
AcDbSymbolTable
 70
    1
  0
VPORT
  5
31
330
2
100
AcDbSymbolTableRecord
100
AcDbViewportTableRecord
  2
*ACTIVE
 70
    0
 10
0
 20
0
 11
1
 21
1
 12
108.9085914004714
 22
53.05537468795563
 13
0
 23
0
 14
10
 24
10
 15
10
 25
10
 16
0
 26
0
 36
1
 17
0
 27
0
 37
0
 40
88.08021188430133
 41
2.108235294117647
 42
50
 43
0
 44
0
 50
0
 51
0
 71
    0
 72
  100
 73
    1
 74
    3
 75
    0
 76
    1
 77
    0
 78
    0
281
    0
 65
    1
110
0
120
0
130
0
111
1
121
0
131
0
112
0
122
1
132
0
 79
    0
146
0
348
10020
 60
    7
 61
    5
292
1
282
    1
141
0
142
0
 63
  250
421
3358443
  0
ENDTAB
  0
TABLE
  2
LTYPE
  5
5
330
0
100
AcDbSymbolTable
 70
    4
  0
LTYPE
  5
14
330
5
100
AcDbSymbolTableRecord
100
AcDbLinetypeTableRecord
  2
ByBlock
 70
    0
  3

 72
   65
 73
    0
 40
0
  0
LTYPE
  5
15
330
5
100
AcDbSymbolTableRecord
100
AcDbLinetypeTableRecord
  2
ByLayer
 70
    0
  3

 72
   65
 73
    0
 40
0
  0
LTYPE
  5
16
330
5
100
AcDbSymbolTableRecord
100
AcDbLinetypeTableRecord
  2
Continuous
 70
    0
  3
Solid line
 72
   65
 73
    0
 40
0
  0
LTYPE
  5
32
330
5
100
AcDbSymbolTableRecord
100
AcDbLinetypeTableRecord
  2
DOT
 70
    0
  3
Dot . . . . . . . . . . . . . . . . . . . . . .
 72
   65
 73
    2
 40
6.35
 49
0
 74
    0
 49
-6.35
 74
    0
  0
LTYPE
  5
33
330
5
100
AcDbSymbolTableRecord
100
AcDbLinetypeTableRecord
  2
DOTTINY
 70
    0
  3
Dot (.15x) .....................................
 72
   65
 73
    2
 40
0.9525
 49
0
 74
    0
 49
-0.9525
 74
    0
  0
LTYPE
  5
34
330
5
100
AcDbSymbolTableRecord
100
AcDbLinetypeTableRecord
  2
DOT2
 70
    0
  3
Dot (.5x) .....................................
 72
   65
 73
    2
 40
3.175
 49
0
 74
    0
 49
-3.175
 74
    0
  0
LTYPE
  5
35
330
5
100
AcDbSymbolTableRecord
100
AcDbLinetypeTableRecord
  2
DOTX2
 70
    0
  3
Dot (2x) .  .  .  .  .  .  .  .  .  .  .  .  .
 72
   65
 73
    2
 40
12.7
 49
0
 74
    0
 49
-12.7
 74
    0
  0
LTYPE
  5
36
330
5
100
AcDbSymbolTableRecord
100
AcDbLinetypeTableRecord
  2
DASHED
 70
    0
  3
Dashed _ _ _ _ _ _ _ _ _ _ _ _ _ _ _ _ _
 72
   65
 73
    2
 40
19.05
 49
12.7
 74
    0
 49
-6.35
 74
    0
  0
LTYPE
  5
37
330
5
100
AcDbSymbolTableRecord
100
AcDbLinetypeTableRecord
  2
DASHEDTINY
 70
    0
  3
Dashed (.15x) _ _ _ _ _ _ _ _ _ _ _ _ _ _ _ _ _
 72
   65
 73
    2
 40
2.8575
 49
1.905
 74
    0
 49
-0.9525
 74
    0
  0
LTYPE
  5
38
330
5
100
AcDbSymbolTableRecord
100
AcDbLinetypeTableRecord
  2
DASHED2
 70
    0
  3
Dashed (.5x) _ _ _ _ _ _ _ _ _ _ _ _ _ _ _ _ _
 72
   65
 73
    2
 40
9.524999999999999
 49
6.35
 74
    0
 49
-3.175
 74
    0
  0
LTYPE
  5
39
330
5
100
AcDbSymbolTableRecord
100
AcDbLinetypeTableRecord
  2
DASHEDX2
 70
    0
  3
Dashed (2x) ____  ____  ____  ____  ____  ___
 72
   65
 73
    2
 40
38.09999999999999
 49
25.4
 74
    0
 49
-12.7
 74
    0
  0
LTYPE
  5
3A
330
5
100
AcDbSymbolTableRecord
100
AcDbLinetypeTableRecord
  2
DASHDOT
 70
    0
  3
Dash dot __ . __ . __ . __ . __ . __ . __ . __
 72
   65
 73
    4
 40
25.4
 49
12.7
 74
    0
 49
-6.35
 74
    0
 49
0
 74
    0
 49
-6.35
 74
    0
  0
LTYPE
  5
3B
330
5
100
AcDbSymbolTableRecord
100
AcDbLinetypeTableRecord
  2
DASHDOTTINY
 70
    0
  3
Dash dot (.15x) _._._._._._._._._._._._._._._.
 72
   65
 73
    4
 40
3.81
 49
1.905
 74
    0
 49
-0.9525
 74
    0
 49
0
 74
    0
 49
-0.9525
 74
    0
  0
LTYPE
  5
3C
330
5
100
AcDbSymbolTableRecord
100
AcDbLinetypeTableRecord
  2
DASHDOT2
 70
    0
  3
Dash dot (.5x) _._._._._._._._._._._._._._._.
 72
   65
 73
    4
 40
12.7
 49
6.35
 74
    0
 49
-3.175
 74
    0
 49
0
 74
    0
 49
-3.175
 74
    0
  0
LTYPE
  5
3D
330
5
100
AcDbSymbolTableRecord
100
AcDbLinetypeTableRecord
  2
DASHDOTX2
 70
    0
  3
Dash dot (2x) ____  .  ____  .  ____  .  ___
 72
   65
 73
    4
 40
50.8
 49
25.4
 74
    0
 49
-12.7
 74
    0
 49
0
 74
    0
 49
-12.7
 74
    0
  0
LTYPE
  5
3E
330
5
100
AcDbSymbolTableRecord
100
AcDbLinetypeTableRecord
  2
DIVIDE
 70
    0
  3
Divide ____ . . ____ . . ____ . . ____ . . ____
 72
   65
 73
    6
 40
31.75
 49
12.7
 74
    0
 49
-6.35
 74
    0
 49
0
 74
    0
 49
-6.35
 74
    0
 49
0
 74
    0
 49
-6.35
 74
    0
  0
LTYPE
  5
3F
330
5
100
AcDbSymbolTableRecord
100
AcDbLinetypeTableRecord
  2
DIVIDETINY
 70
    0
  3
Divide (.15x) __..__..__..__..__..__..__..__.._
 72
   65
 73
    6
 40
4.7625
 49
1.905
 74
    0
 49
-0.9525
 74
    0
 49
0
 74
    0
 49
-0.9525
 74
    0
 49
0
 74
    0
 49
-0.9525
 74
    0
  0
LTYPE
  5
40
330
5
100
AcDbSymbolTableRecord
100
AcDbLinetypeTableRecord
  2
DIVIDE2
 70
    0
  3
Divide (.5x) __..__..__..__..__..__..__..__.._
 72
   65
 73
    6
 40
15.875
 49
6.35
 74
    0
 49
-3.175
 74
    0
 49
0
 74
    0
 49
-3.175
 74
    0
 49
0
 74
    0
 49
-3.175
 74
    0
  0
LTYPE
  5
41
330
5
100
AcDbSymbolTableRecord
100
AcDbLinetypeTableRecord
  2
DIVIDEX2
 70
    0
  3
Divide (2x) ________  .  .  ________  .  .  _
 72
   65
 73
    6
 40
63.5
 49
25.4
 74
    0
 49
-12.7
 74
    0
 49
0
 74
    0
 49
-12.7
 74
    0
 49
0
 74
    0
 49
-12.7
 74
    0
  0
LTYPE
  5
42
330
5
100
AcDbSymbolTableRecord
100
AcDbLinetypeTableRecord
  2
BORDER
 70
    0
  3
Border __ __ . __ __ . __ __ . __ __ . __ __ .
 72
   65
 73
    6
 40
44.45
 49
12.7
 74
    0
 49
-6.35
 74
    0
 49
12.7
 74
    0
 49
-6.35
 74
    0
 49
0
 74
    0
 49
-6.35
 74
    0
  0
LTYPE
  5
43
330
5
100
AcDbSymbolTableRecord
100
AcDbLinetypeTableRecord
  2
BORDERTINY
 70
    0
  3
Border (.15x) __.__.__.__.__.__.__.__.__.__.__.
 72
   65
 73
    6
 40
6.6675
 49
1.905
 74
    0
 49
-0.9525
 74
    0
 49
1.905
 74
    0
 49
-0.9525
 74
    0
 49
0
 74
    0
 49
-0.9525
 74
    0
  0
LTYPE
  5
44
330
5
100
AcDbSymbolTableRecord
100
AcDbLinetypeTableRecord
  2
BORDER2
 70
    0
  3
Border (.5x) __.__.__.__.__.__.__.__.__.__.__.
 72
   65
 73
    6
 40
22.225
 49
6.35
 74
    0
 49
-3.175
 74
    0
 49
6.35
 74
    0
 49
-3.175
 74
    0
 49
0
 74
    0
 49
-3.175
 74
    0
  0
LTYPE
  5
45
330
5
100
AcDbSymbolTableRecord
100
AcDbLinetypeTableRecord
  2
BORDERX2
 70
    0
  3
Border (2x) ____  ____  .  ____  ____  .  ___
 72
   65
 73
    6
 40
88.89999999999999
 49
25.4
 74
    0
 49
-12.7
 74
    0
 49
25.4
 74
    0
 49
-12.7
 74
    0
 49
0
 74
    0
 49
-12.7
 74
    0
  0
LTYPE
  5
46
330
5
100
AcDbSymbolTableRecord
100
AcDbLinetypeTableRecord
  2
CENTER
 70
    0
  3
Center ____ _ ____ _ ____ _ ____ _ ____ _ ____
 72
   65
 73
    4
 40
50.8
 49
31.75
 74
    0
 49
-6.35
 74
    0
 49
6.35
 74
    0
 49
-6.35
 74
    0
  0
LTYPE
  5
47
330
5
100
AcDbSymbolTableRecord
100
AcDbLinetypeTableRecord
  2
CENTERTINY
 70
    0
  3
Center (.15x) ___ _ ___ _ ___ _ ___ _ ___ _ ___
 72
   65
 73
    4
 40
7.619999999999999
 49
4.7625
 74
    0
 49
-0.9525
 74
    0
 49
0.9525
 74
    0
 49
-0.9525
 74
    0
  0
LTYPE
  5
48
330
5
100
AcDbSymbolTableRecord
100
AcDbLinetypeTableRecord
  2
CENTER2
 70
    0
  3
Center (.5x) ___ _ ___ _ ___ _ ___ _ ___ _ ___
 72
   65
 73
    4
 40
28.575
 49
19.05
 74
    0
 49
-3.175
 74
    0
 49
3.175
 74
    0
 49
-3.175
 74
    0
  0
LTYPE
  5
49
330
5
100
AcDbSymbolTableRecord
100
AcDbLinetypeTableRecord
  2
CENTERX2
 70
    0
  3
Center (2x) ________  __  ________  __  _____
 72
   65
 73
    4
 40
101.6
 49
63.5
 74
    0
 49
-12.7
 74
    0
 49
12.7
 74
    0
 49
-12.7
 74
    0
  0
ENDTAB
  0
TABLE
  2
LAYER
  5
2
330
0
100
AcDbSymbolTable
 70
    1
  0
LAYER
  5
10
330
2
100
AcDbSymbolTableRecord
100
AcDbLayerTableRecord
  2
0
 70
    5
 62
    7
  6
CONTINUOUS
370
    0
390
F
  0
LAYER
  5
4A
330
2
100
AcDbSymbolTableRecord
100
AcDbLayerTableRecord
  2
aiguillages
 70
    5
 62
    7
  6
CONTINUOUS
370
    0
390
F
  0
LAYER
  5
4B
330
2
100
AcDbSymbolTableRecord
100
AcDbLayerTableRecord
  2
cotes
 70
    5
 62
    7
  6
CONTINUOUS
370
    0
390
F
  0
LAYER
  5
4C
330
2
100
AcDbSymbolTableRecord
100
AcDbLayerTableRecord
  2
cotes2
 70
    0
 62
    7
  6
CONTINUOUS
370
   35
390
F
  0
LAYER
  5
4D
330
2
100
AcDbSymbolTableRecord
100
AcDbLayerTableRecord
  2
courbes-rails
 70
    4
 62
    7
  6
CONTINUOUS
370
    0
390
F
  0
LAYER
  5
4E
330
2
100
AcDbSymbolTableRecord
100
AcDbLayerTableRecord
  2
courbes-reverse-rails
 70
    5
 62
    7
  6
CONTINUOUS
370
    0
390
F
  0
LAYER
  5
4F
330
2
100
AcDbSymbolTableRecord
100
AcDbLayerTableRecord
  2
courbes-reverse-traverses
 70
    5
 62
    7
  6
CONTINUOUS
370
    0
390
F
  0
LAYER
  5
50
330
2
100
AcDbSymbolTableRecord
100
AcDbLayerTableRecord
  2
courbes-traverses
 70
    4
 62
    7
  6
CONTINUOUS
370
    0
390
F
  0
LAYER
  5
51
330
2
100
AcDbSymbolTableRecord
100
AcDbLayerTableRecord
  2
cross90-rails
 70
    5
 62
    7
  6
CONTINUOUS
370
    0
390
F
  0
LAYER
  5
52
330
2
100
AcDbSymbolTableRecord
100
AcDbLayerTableRecord
  2
cross90-traverses
 70
    5
 62
    7
  6
CONTINUOUS
370
    0
390
F
  0
LAYER
  5
53
330
2
100
AcDbSymbolTableRecord
100
AcDbLayerTableRecord
  2
fix-rails
 70
    5
 62
    7
  6
CONTINUOUS
370
    0
390
F
  0
LAYER
  5
54
330
2
100
AcDbSymbolTableRecord
100
AcDbLayerTableRecord
  2
fix-traverses
 70
    5
 62
    7
  6
CONTINUOUS
370
    0
390
F
  0
LAYER
  5
55
330
2
100
AcDbSymbolTableRecord
100
AcDbLayerTableRecord
  2
fix2-rails
 70
    5
 62
    7
  6
CONTINUOUS
370
    0
390
F
  0
LAYER
  5
56
330
2
100
AcDbSymbolTableRecord
100
AcDbLayerTableRecord
  2
fix2-traverses
 70
    5
 62
    7
  6
CONTINUOUS
370
    0
390
F
  0
LAYER
  5
57
330
2
100
AcDbSymbolTableRecord
100
AcDbLayerTableRecord
  2
grille2
 70
    5
 62
    7
  6
CONTINUOUS
370
    0
390
F
  0
LAYER
  5
58
330
2
100
AcDbSymbolTableRecord
100
AcDbLayerTableRecord
  2
rails
 70
    5
 62
    7
  6
CONTINUOUS
370
    0
390
F
  0
LAYER
  5
59
330
2
100
AcDbSymbolTableRecord
100
AcDbLayerTableRecord
  2
rails-courbes-reverse
 70
    5
 62
    7
  6
CONTINUOUS
370
    0
390
F
  0
LAYER
  5
5A
330
2
100
AcDbSymbolTableRecord
100
AcDbLayerTableRecord
  2
rails-courbes-reverse2
 70
    5
 62
    7
  6
CONTINUOUS
370
    0
390
F
  0
LAYER
  5
5B
330
2
100
AcDbSymbolTableRecord
100
AcDbLayerTableRecord
  2
traverses
 70
    5
 62
    7
  6
CONTINUOUS
370
    0
390
F
  0
ENDTAB
  0
TABLE
  2
STYLE
  5
3
330
0
100
AcDbSymbolTable
 70
    3
  0
STYLE
  5
5C
330
2
100
AcDbSymbolTableRecord
100
AcDbTextStyleTableRecord
  2
Standard
 70
    0
 40
0
 41
1
 50
0
 71
    0
 42
1
  3
txt
  4

  0
ENDTAB
  0
TABLE
  2
VIEW
  5
6
330
0
100
AcDbSymbolTable
 70
    0
  0
ENDTAB
  0
TABLE
  2
UCS
  5
7
330
0
100
AcDbSymbolTable
 70
    0
  0
ENDTAB
  0
TABLE
  2
APPID
  5
9
330
0
100
AcDbSymbolTable
 70
    1
  0
APPID
  5
12
330
9
100
AcDbSymbolTableRecord
100
AcDbRegAppTableRecord
  2
ACAD
 70
    0
  0
APPID
  5
5D
330
9
100
AcDbSymbolTableRecord
100
AcDbRegAppTableRecord
  2
LibreCad
 70
    0
  0
ENDTAB
  0
TABLE
  2
DIMSTYLE
  5
A
330
0
100
AcDbSymbolTable
 70
    1
100
AcDbDimStyleTable
 71
    1
  0
DIMSTYLE
105
5E
330
A
100
AcDbSymbolTableRecord
100
AcDbDimStyleTableRecord
  2
Standard
 70
    0
 40
1
 41
10
 42
5
 43
0.38
 44
5
 45
0
 46
0
 47
0
 48
0
 49
1
140
10
141
0.09
142
5
143
25.4
144
1
145
0
146
1
147
0.625
148
0
 71
    0
 72
    0
 73
    0
 74
    1
 75
    0
 76
    0
 77
    0
 78
    1
 79
    0
170
    0
171
    2
172
    0
173
    0
174
    0
175
    0
176
    0
177
    0
178
    0
179
    2
271
    2
272
    4
273
    2
274
    2
275
    0
276
    0
277
    2
278
    0
279
    0
280
    0
281
    0
282
    0
283
    1
284
    0
285
    0
286
    0
288
    0
289
    3
340
standard
341

371
   35
372
   -2
  0
ENDTAB
  0
TABLE
  2
BLOCK_RECORD
  5
1
330
0
100
AcDbSymbolTable
 70
    2
  0
BLOCK_RECORD
  5
1F
330
1
100
AcDbSymbolTableRecord
100
AcDbBlockTableRecord
  2
*Model_Space
 70
    0
280
    1
281
    0
  0
BLOCK_RECORD
  5
1E
330
1
100
AcDbSymbolTableRecord
100
AcDbBlockTableRecord
  2
*Paper_Space
 70
    0
280
    1
281
    0
  0
BLOCK_RECORD
  5
5F
330
1
100
AcDbSymbolTableRecord
100
AcDbBlockTableRecord
  2
*D9
 70
    0
280
    1
281
    0
  0
BLOCK_RECORD
  5
62
330
1
100
AcDbSymbolTableRecord
100
AcDbBlockTableRecord
  2
*D12
 70
    0
280
    1
281
    0
  0
BLOCK_RECORD
  5
65
330
1
100
AcDbSymbolTableRecord
100
AcDbBlockTableRecord
  2
*D3
 70
    0
280
    1
281
    0
  0
BLOCK_RECORD
  5
68
330
1
100
AcDbSymbolTableRecord
100
AcDbBlockTableRecord
  2
*D4
 70
    0
280
    1
281
    0
  0
BLOCK_RECORD
  5
6B
330
1
100
AcDbSymbolTableRecord
100
AcDbBlockTableRecord
  2
*D7
 70
    0
280
    1
281
    0
  0
BLOCK_RECORD
  5
6E
330
1
100
AcDbSymbolTableRecord
100
AcDbBlockTableRecord
  2
*D11
 70
    0
280
    1
281
    0
  0
BLOCK_RECORD
  5
71
330
1
100
AcDbSymbolTableRecord
100
AcDbBlockTableRecord
  2
*D1
 70
    0
280
    1
281
    0
  0
BLOCK_RECORD
  5
74
330
1
100
AcDbSymbolTableRecord
100
AcDbBlockTableRecord
  2
*D6
 70
    0
280
    1
281
    0
  0
BLOCK_RECORD
  5
77
330
1
100
AcDbSymbolTableRecord
100
AcDbBlockTableRecord
  2
*D5
 70
    0
280
    1
281
    0
  0
BLOCK_RECORD
  5
7A
330
1
100
AcDbSymbolTableRecord
100
AcDbBlockTableRecord
  2
*D2
 70
    0
280
    1
281
    0
  0
BLOCK_RECORD
  5
7D
330
1
100
AcDbSymbolTableRecord
100
AcDbBlockTableRecord
  2
*D10
 70
    0
280
    1
281
    0
  0
BLOCK_RECORD
  5
80
330
1
100
AcDbSymbolTableRecord
100
AcDbBlockTableRecord
  2
*D8
 70
    0
280
    1
281
    0
  0
ENDTAB
  0
ENDSEC
  0
SECTION
  2
BLOCKS
  0
BLOCK
  5
20
330
1F
100
AcDbEntity
  8
0
100
AcDbBlockBegin
  2
*Model_Space
 70
    0
 10
0
 20
0
 30
0
  3
*Model_Space
  1

  0
ENDBLK
  5
21
330
1F
100
AcDbEntity
  8
0
100
AcDbBlockEnd
  0
BLOCK
  5
1C
330
1B
100
AcDbEntity
  8
0
100
AcDbBlockBegin
  2
*Paper_Space
 70
    0
 10
0
 20
0
 30
0
  3
*Paper_Space
  1

  0
ENDBLK
  5
1D
330
1F
100
AcDbEntity
  8
0
100
AcDbBlockEnd
  0
BLOCK
  5
60
330
5F
100
AcDbEntity
  8
0
100
AcDbBlockBegin
  2
*D9
 70
    1
 10
0
 20
0
  3
*D9
  1

  0
LINE
  5
83
100
AcDbEntity
  8
cotes2
  6
ByBlock
 62
    0
370
   -2
100
AcDbLine
 10
206.2903233394036
 20
56.60754015500988
 11
149.7857540442699
 21
-79.80655737335221
  0
LINE
  5
84
100
AcDbEntity
  8
cotes2
  6
ByBlock
 62
    0
370
   -2
100
AcDbLine
 10
99.99999999999996
 20
55.19288965074952
 11
99.99999999999997
 21
-69.90355517462508
  0
ARC
  5
85
100
AcDbEntity
  8
cotes2
  6
ByBlock
 62
    0
370
   35
100
AcDbCircle
 10
100
 20
-199.9999999999997
 40
125.0964448253746
100
AcDbArc
 50
67.49999999999999
 51
90.00000000000001
  0
SOLID
  5
86
100
AcDbEntity
  8
cotes2
  6
ByBlock
 62
    0
370
   35
100
AcDbTrace
 10
147.8723368824445
 20
-84.42595503590864
 30
0
 11
137.9127652269083
 21
-82.53396690196236
 31
0
 12
139.0632459375133
 22
-79.40872438696657
 32
0
 13
139.0632459375133
 23
-79.40872438696657
 33
0
  0
SOLID
  5
87
100
AcDbEntity
  8
cotes2
  6
ByBlock
 62
    0
370
   35
100
AcDbTrace
 10
99.99999999999999
 20
-74.90355517462508
 30
0
 11
110.0585498697569
 21
-73.63933162700171
 31
0
 12
109.925476918222
 22
-76.96694912794453
 32
0
 13
109.925476918222
 23
-76.96694912794453
 33
0
  0
MTEXT
  5
88
100
AcDbEntity
  8
cotes2
  6
CONTINUOUS
 62
    0
370
   -2
100
AcDbMText
 10
124.5270371553152
 20
-76.6942574842454
 30
0
 40
10
 41
37.7777777777784
 71
    8
 72
    1
  1
22.50%%D
  7
standard
210
0
220
0
230
1
 50
348.75
 73
    2
 44
1
  0
ENDBLK
  5
61
330
5F
100
AcDbEntity
  8
0
100
AcDbBlockEnd
  0
BLOCK
  5
63
330
62
100
AcDbEntity
  8
0
100
AcDbBlockBegin
  2
*D12
 70
    1
 10
0
 20
0
  3
*D12
  1

  0
LINE
  5
89
100
AcDbEntity
  8
cotes2
  6
ByBlock
 62
    0
370
   35
100
AcDbLine
 10
100
 20
10.96988312782171
 11
100
 21
70.19288965074951
  0
LINE
  5
8A
100
AcDbEntity
  8
cotes2
  6
ByBlock
 62
    0
370
   35
100
AcDbLine
 10
103.5355339059327
 20
27.43434922188897
 11
96.46446609406726
 21
34.50541703375444
  0
LINE
  5
8B
100
AcDbEntity
  8
cotes2
  6
ByBlock
 62
    0
370
   35
100
AcDbLine
 10
103.5355339059327
 20
46.65735574481677
 11
96.46446609406726
 21
53.72842355668224
  0
MTEXT
  5
8C
100
AcDbEntity
  8
cotes2
  6
CONTINUOUS
 62
    0
370
   -2
100
AcDbMText
 10
94.375
 20
65.26233409519395
 30
0
 40
10
 41
28.88888888888889
 71
    5
 72
    1
  1
19.22
  7
standard
210
0
220
0
230
1
 50
90
 73
    2
 44
1
  0
LINE
  5
8D
100
AcDbEntity
  8
cotes2
  6
ByBlock
 62
    0
370
   -2
100
AcDbLine
 10
190.6708580912724
 20
30.96988312782171
 11
95
 21
30.96988312782171
  0
LINE
  5
8E
100
AcDbEntity
  8
cotes2
  6
ByBlock
 62
    0
370
   -2
100
AcDbLine
 10
95
 20
50.19288965074951
 11
95
 21
50.19288965074951
  0
ENDBLK
  5
64
330
62
100
AcDbEntity
  8
0
100
AcDbBlockEnd
  0
BLOCK
  5
66
330
65
100
AcDbEntity
  8
0
100
AcDbBlockBegin
  2
*D3
 70
    1
 10
0
 20
0
  3
*D3
  1

  0
LINE
  5
8F
100
AcDbEntity
  8
cotes
  6
ByBlock
 62
    0
370
   35
100
AcDbLine
 10
-9.210000000000001
 20
5.94127365999186
 11
54.71
 21
5.941273659991855
  0
LINE
  5
90
100
AcDbEntity
  8
cotes
  6
ByBlock
 62
    0
370
   35
100
AcDbLine
 10
7.254466094067261
 20
2.40573975405912
 11
14.32553390593274
 21
9.476807565924595
  0
LINE
  5
91
100
AcDbEntity
  8
cotes
  6
ByBlock
 62
    0
370
   35
100
AcDbLine
 10
31.17446609406726
 20
2.40573975405912
 11
38.24553390593274
 21
9.476807565924595
  0
MTEXT
  5
92
100
AcDbEntity
  8
cotes
  6
CONTINUOUS
 62
    0
370
   -2
100
AcDbMText
 10
50.89055555555587
 20
11.56627365999186
 30
0
 40
10
 41
31.11111111111174
 71
    5
 72
    1
  1
23.92
  7
standard
210
0
220
0
230
1
 50
0
 73
    2
 44
1
  0
LINE
  5
93
100
AcDbEntity
  8
cotes
  6
ByBlock
 62
    0
370
   -2
100
AcDbLine
 10
10.79
 20
9.5
 11
10.79
 21
10.94127365999186
  0
LINE
  5
94
100
AcDbEntity
  8
cotes
  6
ByBlock
 62
    0
370
   -2
100
AcDbLine
 10
34.71
 20
9.500000000000007
 11
34.71
 21
10.94127365999186
  0
ENDBLK
  5
67
330
65
100
AcDbEntity
  8
0
100
AcDbBlockEnd
  0
BLOCK
  5
69
330
68
100
AcDbEntity
  8
0
100
AcDbBlockBegin
  2
*D4
 70
    1
 10
0
 20
0
  3
*D4
  1

  0
LINE
  5
95
100
AcDbEntity
  8
cotes
  6
ByBlock
 62
    0
370
   35
100
AcDbLine
 10
14.71
 20
5.94127365999186
 11
56.21
 21
5.941273659991855
  0
LINE
  5
96
100
AcDbEntity
  8
cotes
  6
ByBlock
 62
    0
370
   35
100
AcDbLine
 10
31.17446609406726
 20
2.40573975405912
 11
38.24553390593274
 21
9.476807565924595
  0
LINE
  5
97
100
AcDbEntity
  8
cotes
  6
ByBlock
 62
    0
370
   35
100
AcDbLine
 10
32.67446609406726
 20
2.40573975405912
 11
39.74553390593274
 21
9.476807565924595
  0
MTEXT
  5
98
100
AcDbEntity
  8
cotes
  6
CONTINUOUS
 62
    0
370
   -2
100
AcDbMText
 10
47.39055555555586
 20
11.56627365999186
 30
0
 40
10
 41
21.11111111111173
 71
    5
 72
    1
  1
1.50
  7
standard
210
0
220
0
230
1
 50
0
 73
    2
 44
1
  0
LINE
  5
99
100
AcDbEntity
  8
cotes
  6
ByBlock
 62
    0
370
   -2
100
AcDbLine
 10
34.71
 20
9.500000000000007
 11
34.71
 21
10.94127365999186
  0
LINE
  5
9A
100
AcDbEntity
  8
cotes
  6
ByBlock
 62
    0
370
   -2
100
AcDbLine
 10
36.21
 20
9.500000000000009
 11
36.21
 21
10.94127365999186
  0
ENDBLK
  5
6A
330
68
100
AcDbEntity
  8
0
100
AcDbBlockEnd
  0
BLOCK
  5
6C
330
6B
100
AcDbEntity
  8
0
100
AcDbBlockBegin
  2
*D7
 70
    1
 10
0
 20
0
  3
*D7
  1

  0
LINE
  5
9B
100
AcDbEntity
  8
cotes
  6
ByBlock
 62
    0
370
   35
100
AcDbLine
 10
-6.014622717522626
 20
-20
 11
-6.014622717522619
 21
22
  0
LINE
  5
9C
100
AcDbEntity
  8
cotes
  6
ByBlock
 62
    0
370
   35
100
AcDbLine
 10
-2.479088811589885
 20
-3.535533905932738
 11
-9.55015662345536
 21
3.535533905932738
  0
LINE
  5
9D
100
AcDbEntity
  8
cotes
  6
ByBlock
 62
    0
370
   35
100
AcDbLine
 10
-2.479088811589885
 20
-1.535533905932737
 11
-9.55015662345536
 21
5.535533905932738
  0
MTEXT
  5
9E
100
AcDbEntity
  8
cotes
  6
CONTINUOUS
 62
    0
370
   -2
100
AcDbMText
 10
-11.63962271752262
 20
14.29166666666667
 30
0
 40
10
 41
23.33333333333334
 71
    5
 72
    1
  1
2.00
  7
standard
210
0
220
0
230
1
 50
90
 73
    2
 44
1
  0
LINE
  5
9F
100
AcDbEntity
  8
cotes
  6
ByBlock
 62
    0
370
   -2
100
AcDbLine
 10
-5
 20
6.123233995736766e-16
 11
-11.01462271752262
 21
6.123233995736766e-16
  0
LINE
  5
A0
100
AcDbEntity
  8
cotes
  6
ByBlock
 62
    0
370
   -2
100
AcDbLine
 10
-5
 20
2
 11
-11.01462271752262
 21
2.000000000000001
  0
ENDBLK
  5
6D
330
6B
100
AcDbEntity
  8
0
100
AcDbBlockEnd
  0
BLOCK
  5
6F
330
6E
100
AcDbEntity
  8
0
100
AcDbBlockBegin
  2
*D11
 70
    1
 10
0
 20
0
  3
*D11
  1

  0
LINE
  5
A1
100
AcDbEntity
  8
cotes2
  6
ByBlock
 62
    0
370
   35
100
AcDbLine
 10
100
 20
64.74700506075447
 11
195.6708580912724
 21
64.74700506075447
  0
LINE
  5
A2
100
AcDbEntity
  8
cotes2
  6
ByBlock
 62
    0
370
   35
100
AcDbLine
 10
103.5355339059327
 20
68.28253896668721
 11
96.46446609406726
 21
61.21147115482174
  0
LINE
  5
A3
100
AcDbEntity
  8
cotes2
  6
ByBlock
 62
    0
370
   35
100
AcDbLine
 10
199.2063919972051
 20
68.28253896668721
 11
192.1353241853397
 21
61.21147115482174
  0
MTEXT
  5
A4
100
AcDbEntity
  8
cotes2
  6
CONTINUOUS
 62
    0
370
   -2
100
AcDbMText
 10
147.8354290456362
 20
70.37200506075447
 30
0
 40
10
 41
31.11111111111298
 71
    5
 72
    1
  1
95.67
  7
standard
210
0
220
0
230
1
 50
0
 73
    2
 44
1
  0
LINE
  5
A5
100
AcDbEntity
  8
cotes2
  6
ByBlock
 62
    0
370
   -2
100
AcDbLine
 10
100
 20
55.19288965074951
 11
100
 21
69.74700506075447
  0
LINE
  5
A6
100
AcDbEntity
  8
cotes2
  6
ByBlock
 62
    0
370
   -2
100
AcDbLine
 10
195.6708580912724
 20
35.9698831278217
 11
195.6708580912724
 21
69.74700506075447
  0
ENDBLK
  5
70
330
6E
100
AcDbEntity
  8
0
100
AcDbBlockEnd
  0
BLOCK
  5
72
330
71
100
AcDbEntity
  8
0
100
AcDbBlockBegin
  2
*D1
 70
    1
 10
0
 20
0
  3
*D1
  1

  0
LINE
  5
A7
100
AcDbEntity
  8
cotes
  6
ByBlock
 62
    0
370
   35
100
AcDbLine
 10
-20
 20
5.941273659991862
 11
29.29
 21
5.941273659991857
  0
LINE
  5
A8
100
AcDbEntity
  8
cotes
  6
ByBlock
 62
    0
370
   35
100
AcDbLine
 10
-3.535533905932738
 20
2.405739754059122
 11
3.535533905932738
 21
9.476807565924597
  0
LINE
  5
A9
100
AcDbEntity
  8
cotes
  6
ByBlock
 62
    0
370
   35
100
AcDbLine
 10
5.754466094067261
 20
2.405739754059122
 11
12.82553390593274
 21
9.476807565924597
  0
MTEXT
  5
AA
100
AcDbEntity
  8
cotes
  6
CONTINUOUS
 62
    0
370
   -2
100
AcDbMText
 10
21.58166666666698
 20
11.56627365999186
 30
0
 40
10
 41
23.33333333333395
 71
    5
 72
    1
  1
9.29
  7
standard
210
0
220
0
230
1
 50
0
 73
    2
 44
1
  0
LINE
  5
AB
100
AcDbEntity
  8
cotes
  6
ByBlock
 62
    0
370
   -2
100
AcDbLine
 10
4.286263797015736e-16
 20
7
 11
3.061616997868383e-16
 21
10.94127365999186
  0
LINE
  5
AC
100
AcDbEntity
  8
cotes
  6
ByBlock
 62
    0
370
   -2
100
AcDbLine
 10
9.289999999999999
 20
7
 11
9.289999999999999
 21
10.94127365999186
  0
ENDBLK
  5
73
330
71
100
AcDbEntity
  8
0
100
AcDbBlockEnd
  0
BLOCK
  5
75
330
74
100
AcDbEntity
  8
0
100
AcDbBlockBegin
  2
*D6
 70
    1
 10
0
 20
0
  3
*D6
  1

  0
LINE
  5
AD
100
AcDbEntity
  8
cotes
  6
ByBlock
 62
    0
370
   35
100
AcDbLine
 10
0
 20
9.828773709122331
 11
45.5
 21
9.828773709122331
  0
LINE
  5
AE
100
AcDbEntity
  8
cotes
  6
ByBlock
 62
    0
370
   35
100
AcDbLine
 10
3.535533905932739
 20
13.36430761505507
 11
-3.535533905932739
 21
6.293239803189593
  0
LINE
  5
AF
100
AcDbEntity
  8
cotes
  6
ByBlock
 62
    0
370
   35
100
AcDbLine
 10
49.03553390593274
 20
13.36430761505507
 11
41.96446609406726
 21
6.293239803189593
  0
MTEXT
  5
B0
100
AcDbEntity
  8
cotes
  6
CONTINUOUS
 62
    0
370
   -2
100
AcDbMText
 10
22.75
 20
15.45377370912233
 30
0
 40
10
 41
32.22222222222346
 71
    5
 72
    1
  1
45.50
  7
standard
210
0
220
0
230
1
 50
0
 73
    2
 44
1
  0
LINE
  5
B1
100
AcDbEntity
  8
cotes
  6
ByBlock
 62
    0
370
   -2
100
AcDbLine
 10
4.286263797015736e-16
 20
7
 11
3.061616997868383e-16
 21
14.82877370912233
  0
LINE
  5
B2
100
AcDbEntity
  8
cotes
  6
ByBlock
 62
    0
370
   -2
100
AcDbLine
 10
45.5
 20
7.000000000000004
 11
45.5
 21
14.82877370912233
  0
ENDBLK
  5
76
330
74
100
AcDbEntity
  8
0
100
AcDbBlockEnd
  0
BLOCK
  5
78
330
77
100
AcDbEntity
  8
0
100
AcDbBlockBegin
  2
*D5
 70
    1
 10
0
 20
0
  3
*D5
  1

  0
LINE
  5
B3
100
AcDbEntity
  8
cotes
  6
ByBlock
 62
    0
370
   35
100
AcDbLine
 10
16.21
 20
5.941273659991858
 11
65.5
 21
5.941273659991853
  0
LINE
  5
B4
100
AcDbEntity
  8
cotes
  6
ByBlock
 62
    0
370
   35
100
AcDbLine
 10
32.67446609406726
 20
2.405739754059118
 11
39.74553390593274
 21
9.476807565924593
  0
LINE
  5
B5
100
AcDbEntity
  8
cotes
  6
ByBlock
 62
    0
370
   35
100
AcDbLine
 10
41.96446609406726
 20
2.405739754059118
 11
49.03553390593274
 21
9.476807565924593
  0
MTEXT
  5
B6
100
AcDbEntity
  8
cotes
  6
CONTINUOUS
 62
    0
370
   -2
100
AcDbMText
 10
57.79166666666698
 20
11.56627365999186
 30
0
 40
10
 41
23.33333333333395
 71
    5
 72
    1
  1
9.29
  7
standard
210
0
220
0
230
1
 50
0
 73
    2
 44
1
  0
LINE
  5
B7
100
AcDbEntity
  8
cotes
  6
ByBlock
 62
    0
370
   -2
100
AcDbLine
 10
36.21
 20
9.500000000000009
 11
36.21
 21
10.94127365999186
  0
LINE
  5
B8
100
AcDbEntity
  8
cotes
  6
ByBlock
 62
    0
370
   -2
100
AcDbLine
 10
45.5
 20
7.000000000000004
 11
45.5
 21
10.94127365999186
  0
ENDBLK
  5
79
330
77
100
AcDbEntity
  8
0
100
AcDbBlockEnd
  0
BLOCK
  5
7B
330
7A
100
AcDbEntity
  8
0
100
AcDbBlockBegin
  2
*D2
 70
    1
 10
0
 20
0
  3
*D2
  1

  0
LINE
  5
B9
100
AcDbEntity
  8
cotes
  6
ByBlock
 62
    0
370
   35
100
AcDbLine
 10
-10.71
 20
5.941273659991861
 11
30.79
 21
5.941273659991856
  0
LINE
  5
BA
100
AcDbEntity
  8
cotes
  6
ByBlock
 62
    0
370
   35
100
AcDbLine
 10
5.754466094067261
 20
2.405739754059121
 11
12.82553390593274
 21
9.476807565924595
  0
LINE
  5
BB
100
AcDbEntity
  8
cotes
  6
ByBlock
 62
    0
370
   35
100
AcDbLine
 10
7.254466094067261
 20
2.405739754059121
 11
14.32553390593274
 21
9.476807565924595
  0
MTEXT
  5
BC
100
AcDbEntity
  8
cotes
  6
CONTINUOUS
 62
    0
370
   -2
100
AcDbMText
 10
21.97055555555587
 20
11.56627365999186
 30
0
 40
10
 41
21.11111111111173
 71
    5
 72
    1
  1
1.50
  7
standard
210
0
220
0
230
1
 50
0
 73
    2
 44
1
  0
LINE
  5
BD
100
AcDbEntity
  8
cotes
  6
ByBlock
 62
    0
370
   -2
100
AcDbLine
 10
9.289999999999999
 20
9.5
 11
9.289999999999999
 21
10.94127365999186
  0
LINE
  5
BE
100
AcDbEntity
  8
cotes
  6
ByBlock
 62
    0
370
   -2
100
AcDbLine
 10
10.79
 20
9.5
 11
10.79
 21
10.94127365999186
  0
ENDBLK
  5
7C
330
7A
100
AcDbEntity
  8
0
100
AcDbBlockEnd
  0
BLOCK
  5
7E
330
7D
100
AcDbEntity
  8
0
100
AcDbBlockBegin
  2
*D10
 70
    1
 10
0
 20
0
  3
*D10
  1

  0
LINE
  5
BF
100
AcDbEntity
  8
cotes2
  6
ByBlock
 62
    0
370
   35
100
AcDbLine
 10
52.67203880216773
 20
50.19288965074949
 11
52.67203880216771
 21
-199.9999999999997
  0
LINE
  5
C0
100
AcDbEntity
  8
cotes2
  6
ByBlock
 62
    0
370
   35
100
AcDbLine
 10
56.20757270810047
 20
46.65735574481675
 11
49.136504896235
 21
53.72842355668223
  0
LINE
  5
C1
100
AcDbEntity
  8
cotes2
  6
ByBlock
 62
    0
370
   35
100
AcDbLine
 10
56.20757270810045
 20
-203.5355339059324
 11
49.13650489623497
 21
-196.4644660940669
  0
MTEXT
  5
C2
100
AcDbEntity
  8
cotes2
  6
CONTINUOUS
 62
    0
370
   -2
100
AcDbMText
 10
47.04703880216772
 20
-74.9035551746251
 30
0
 40
10
 41
36.6666666666673
 71
    5
 72
    1
  1
250.19
  7
standard
210
0
220
0
230
1
 50
90
 73
    2
 44
1
  0
LINE
  5
C3
100
AcDbEntity
  8
cotes2
  6
ByBlock
 62
    0
370
   -2
100
AcDbLine
 10
95
 20
50.19288965074951
 11
47.67203880216773
 21
50.19288965074949
  0
LINE
  5
C4
100
AcDbEntity
  8
cotes2
  6
ByBlock
 62
    0
370
   -2
100
AcDbLine
 10
95.00000000000001
 20
-199.9999999999997
 11
47.67203880216771
 21
-199.9999999999997
  0
ENDBLK
  5
7F
330
7D
100
AcDbEntity
  8
0
100
AcDbBlockEnd
  0
BLOCK
  5
81
330
80
100
AcDbEntity
  8
0
100
AcDbBlockBegin
  2
*D8
 70
    1
 10
0
 20
0
  3
*D8
  1

  0
LINE
  5
C5
100
AcDbEntity
  8
cotes
  6
ByBlock
 62
    0
370
   35
100
AcDbLine
 10
-3.227358531353604
 20
-18
 11
-3.227358531353596
 21
24.5
  0
LINE
  5
C6
100
AcDbEntity
  8
cotes
  6
ByBlock
 62
    0
370
   35
100
AcDbLine
 10
0.3081753745791374
 20
-1.535533905932737
 11
-6.762892437286338
 21
5.535533905932738
  0
LINE
  5
C7
100
AcDbEntity
  8
cotes
  6
ByBlock
 62
    0
370
   35
100
AcDbLine
 10
0.3081753745791374
 20
0.964466094067264
 11
-6.762892437286338
 21
8.03553390593274
  0
MTEXT
  5
C8
100
AcDbEntity
  8
cotes
  6
CONTINUOUS
 62
    0
370
   -2
100
AcDbMText
 10
-8.8523585313536
 20
16.79166666666698
 30
0
 40
10
 41
23.33333333333396
 71
    5
 72
    1
  1
2.50
  7
standard
210
0
220
0
230
1
 50
90
 73
    2
 44
1
  0
LINE
  5
C9
100
AcDbEntity
  8
cotes
  6
ByBlock
 62
    0
370
   -2
100
AcDbLine
 10
-5
 20
2
 11
-8.2273585313536
 21
2.000000000000001
  0
LINE
  5
CA
100
AcDbEntity
  8
cotes
  6
ByBlock
 62
    0
370
   -2
100
AcDbLine
 10
4.289999999999999
 20
4.500000000000002
 11
-8.2273585313536
 21
4.500000000000003
  0
ENDBLK
  5
82
330
80
100
AcDbEntity
  8
0
100
AcDbBlockEnd
  0
ENDSEC
  0
SECTION
  2
ENTITIES
  0
HATCH
  5
CB
100
AcDbEntity
  8
courbes-rails
  6
ByLayer
 62
  256
370
   -1
100
AcDbHatch
 10
0
 20
0
 30
0
210
0
220
0
230
1
  2
SOLID
 70
    1
 71
    0
 91
    1
 92
    0
 93
    8
 72
    2
 10
100
 20
-200
 40
238.04
 50
67.5
 51
90
 73
    1
 72
    1
 10
100
 20
38.03999999999999
 11
100
 21
36.53999999999999
 72
    2
 10
100
 20
-200
 40
236.54
 50
270
 51
292.5
 73
    0
 72
    1
 10
190.5199390916383
 20
18.53446462021975
 11
191.093964240186
 21
19.92028391898668
 72
    2
 10
100
 20
-200
 40
263.46
 50
67.5
 51
90
 73
    1
 72
    1
 10
100
 20
63.45999999999998
 11
100
 21
61.95999999999998
 72
    2
 10
100
 20
-200
 40
261.96
 50
270
 51
292.5
 73
    0
 72
    1
 10
200.2477519423589
 20
42.01948233665667
 11
200.8217770909066
 21
43.4053016354236
 97
    0
 75
    0
 76
    1
 98
    0
  0
HATCH
  5
CC
100
AcDbEntity
  8
courbes-traverses
  6
ByLayer
 62
  256
370
   -1
100
AcDbHatch
 10
0
 20
0
 30
0
210
0
220
0
230
1
  2
SOLID
 70
    1
 71
    0
 91
    1
 92
    0
 93
    4
 72
    1
 10
192.5270446460412
 20
56.58392098701256
 11
196.2798099897312
 21
55.19945275870256
 72
    1
 10
196.2798099897312
 20
55.19945275870256
 11
180.5314838927052
 21
12.51174697422954
 72
    1
 10
180.5314838927052
 20
12.51174697422954
 11
176.7787185490153
 21
13.89621520253951
 72
    1
 10
176.7787185490153
 20
13.89621520253951
 11
192.5270446460412
 21
56.58392098701256
 97
    0
 75
    0
 76
    1
 98
    0
  0
HATCH
  5
CD
100
AcDbEntity
  8
courbes-traverses
  6
ByLayer
 62
  256
370
   -1
100
AcDbHatch
 10
0
 20
0
 30
0
210
0
220
0
230
1
  2
SOLID
 70
    1
 71
    0
 91
    1
 92
    0
 93
    4
 72
    1
 10
182.3822721831766
 20
60.01869880825302
 11
186.1864982483572
 21
58.78263083075319
 72
    1
 10
186.1864982483572
 20
58.78263083075319
 11
172.1262250042971
 21
15.50955933932374
 72
    1
 10
172.1262250042971
 20
15.50955933932374
 11
168.3219989391165
 21
16.74562731682352
 72
    1
 10
168.3219989391165
 20
16.74562731682352
 11
182.3822721831766
 21
60.01869880825302
 97
    0
 75
    0
 76
    1
 98
    0
  0
HATCH
  5
CE
100
AcDbEntity
  8
courbes-traverses
  6
ByLayer
 62
  256
370
   -1
100
AcDbHatch
 10
0
 20
0
 30
0
210
0
220
0
230
1
  2
SOLID
 70
    1
 71
    0
 91
    1
 92
    0
 93
    4
 72
    1
 10
172.1104722277917
 20
63.05254664246246
 11
175.9602931736063
 21
61.96678484300213
 72
    1
 10
175.9602931736063
 20
61.96678484300213
 11
163.6097527047454
 21
18.17507158436121
 72
    1
 10
163.6097527047454
 20
18.17507158436121
 11
159.7599317589308
 21
19.26083338382148
 72
    1
 10
159.7599317589308
 20
19.26083338382148
 11
172.1104722277917
 21
63.05254664246246
 97
    0
 75
    0
 76
    1
 98
    0
  0
HATCH
  5
CF
100
AcDbEntity
  8
courbes-traverses
  6
ByLayer
 62
  256
370
   -1
100
AcDbHatch
 10
0
 20
0
 30
0
210
0
220
0
230
1
  2
SOLID
 70
    1
 71
    0
 91
    1
 92
    0
 93
    4
 72
    1
 10
161.7274831509029
 20
65.6807865161781
 11
165.6169628324936
 21
64.74700506075447
 72
    1
 10
165.6169628324936
 20
64.74700506075447
 11
154.9951987770498
 21
20.50417368266019
 72
    1
 10
154.9951987770498
 20
20.50417368266019
 11
151.1057190954592
 21
21.43795513808382
 72
    1
 10
151.1057190954592
 20
21.43795513808382
 11
161.7274831509029
 21
65.6807865161781
 97
    0
 75
    0
 76
    1
 98
    0
  0
HATCH
  5
D0
100
AcDbEntity
  8
courbes-traverses
  6
ByLayer
 62
  256
370
   -1
100
AcDbHatch
 10
0
 20
0
 30
0
210
0
220
0
230
1
  2
SOLID
 70
    1
 71
    0
 91
    1
 92
    0
 93
    4
 72
    1
 10
151.2493147690925
 20
67.89936587401337
 11
155.1724558907054
 21
67.1190045859488
 72
    1
 10
155.1724558907054
 20
67.1190045859488
 11
146.2958462389716
 21
22.49327432760185
 72
    1
 10
146.2958462389716
 20
22.49327432760185
 11
142.3727051173587
 21
23.27363561566636
 72
    1
 10
142.3727051173587
 20
23.27363561566636
 11
151.2493147690925
 21
67.89936587401337
 97
    0
 75
    0
 76
    1
 98
    0
  0
HATCH
  5
D1
100
AcDbEntity
  8
courbes-traverses
  6
ByLayer
 62
  256
370
   -1
100
AcDbHatch
 10
0
 20
0
 30
0
210
0
220
0
230
1
  2
SOLID
 70
    1
 71
    0
 91
    1
 92
    0
 93
   12
 72
    1
 10
185.1170509399441
 20
10.71699062792007
 11
186.9648100049666
 21
9.9516237631899
 72
    1
 10
186.9648100049666
 20
9.9516237631899
 11
194.9437595697788
 21
29.21451201605024
 72
    1
 10
194.9437595697788
 20
29.21451201605024
 11
196.9762945413036
 21
28.37260846484705
 72
    1
 10
196.9762945413036
 20
28.37260846484705
 11
195.8282442442083
 21
25.60096986731318
 72
    1
 10
195.8282442442083
 20
25.60096986731318
 11
197.8607792157332
 21
24.75906631610997
 72
    1
 10
197.8607792157332
 20
24.75906631610997
 11
201.6110768529111
 21
33.8130857347206
 72
    1
 10
201.6110768529111
 20
33.8130857347206
 11
199.5785418813862
 21
34.65498928592382
 72
    1
 10
199.5785418813862
 20
34.65498928592382
 11
198.430491584291
 21
31.88335068838995
 72
    1
 10
198.430491584291
 20
31.88335068838995
 11
196.3979566127661
 21
32.72525423959314
 72
    1
 10
196.3979566127661
 20
32.72525423959314
 11
204.3769061775782
 21
51.98814249245345
 72
    1
 10
204.3769061775782
 20
51.98814249245345
 11
202.5291471125557
 21
52.75350935718362
 72
    1
 10
202.5291471125557
 20
52.75350935718362
 11
185.1170509399441
 21
10.71699062792007
 97
    0
 75
    0
 76
    1
 98
    0
  0
HATCH
  5
D2
100
AcDbEntity
  8
courbes-traverses
  6
ByLayer
 62
  256
370
   -1
100
AcDbHatch
 10
0
 20
0
 30
0
210
0
220
0
230
1
  2
SOLID
 70
    1
 71
    0
 91
    1
 92
    0
 93
    8
 72
    1
 10
130.0721882427154
 20
71.09449642937182
 11
134.0444620705351
 21
70.62434683954052
 72
    1
 10
134.0444620705351
 20
70.62434683954052
 11
128.6965104862035
 21
25.43973204809132
 72
    1
 10
128.6965104862035
 20
25.43973204809132
 11
124.7242366583837
 21
25.90988163792267
 72
    1
 10
124.7242366583837
 20
25.90988163792267
 11
130.0721882427154
 21
71.09449642937182
 72
    1
 10
140.6921236585327
 20
69.70486382740432
 11
144.6428770209133
 21
69.07912596724339
 72
    1
 10
144.6428770209133
 20
69.07912596724339
 11
137.5251088615827
 21
24.1393064701646
 72
    1
 10
137.5251088615827
 20
24.1393064701646
 11
133.5743554992022
 21
24.76504433032554
 72
    1
 10
133.5743554992022
 20
24.76504433032554
 11
140.6921236585327
 21
69.70486382740432
 97
    0
 75
    0
 76
    1
 98
    0
  0
HATCH
  5
D3
100
AcDbEntity
  8
courbes-traverses
  6
ByLayer
 62
  256
370
   -1
100
AcDbHatch
 10
0
 20
0
 30
0
210
0
220
0
230
1
  2
SOLID
 70
    1
 71
    0
 91
    1
 92
    0
 93
    4
 72
    1
 10
119.823664171619
 20
26.39254589939762
 11
115.8359948366865
 21
26.70638228230902
 72
    1
 10
115.8359948366865
 20
26.70638228230902
 11
119.4058836923034
 21
72.0661209671663
 72
    1
 10
119.4058836923034
 20
72.0661209671663
 11
123.393553027236
 21
71.75228458425494
 72
    1
 10
123.393553027236
 20
71.75228458425494
 11
119.823664171619
 21
26.39254589939762
 97
    0
 75
    0
 76
    1
 98
    0
  0
HATCH
  5
D4
100
AcDbEntity
  8
courbes-traverses
  6
ByLayer
 62
  256
370
   -1
100
AcDbHatch
 10
0
 20
0
 30
0
210
0
220
0
230
1
  2
SOLID
 70
    1
 71
    0
 91
    1
 92
    0
 93
    4
 72
    1
 10
108.7096566758045
 20
72.61823926617529
 11
112.7065728207674
 21
72.46120000313901
 72
    1
 10
112.7065728207674
 20
72.46120000313901
 11
110.9202512037298
 21
26.99627885418615
 72
    1
 10
110.9202512037298
 20
26.99627885418615
 11
106.9233350587669
 21
27.15331811722243
 72
    1
 10
106.9233350587669
 20
27.15331811722243
 11
108.7096566758045
 21
72.61823926617529
 97
    0
 75
    0
 76
    1
 98
    0
  0
HATCH
  5
D5
100
AcDbEntity
  8
courbes-traverses
  6
ByLayer
 62
  256
370
   -1
100
AcDbHatch
 10
0
 20
0
 30
0
210
0
220
0
230
1
  2
SOLID
 70
    1
 71
    0
 91
    1
 92
    0
 93
    4
 72
    1
 10
102
 20
48
 11
100
 21
48
 72
    1
 10
100
 20
48
 11
100
 21
27.42533669253131
 72
    1
 10
100
 20
27.42533669253131
 11
102
 21
27.34675647851598
 72
    1
 10
102
 20
27.34675647851598
 11
102
 21
48
 97
    0
 75
    0
 76
    1
 98
    0
  0
HATCH
  5
D6
100
AcDbEntity
  8
courbes-traverses
  6
ByLayer
 62
  256
370
   -1
100
AcDbHatch
 10
0
 20
0
 30
0
210
0
220
0
230
1
  2
SOLID
 70
    1
 71
    0
 91
    1
 92
    0
 93
    4
 72
    1
 10
102
 20
52
 11
100
 21
52
 72
    1
 10
100
 20
52
 11
100
 21
72.9604426089677
 72
    1
 10
100
 20
72.9604426089677
 11
102
 21
72.9604426089677
 72
    1
 10
102
 20
72.9604426089677
 11
102
 21
52
 97
    0
 75
    0
 76
    1
 98
    0
  0
HATCH
  5
D7
100
AcDbEntity
  8
cotes
  6
ByLayer
 62
  256
370
   -1
100
AcDbHatch
 10
0
 20
0
 30
0
210
0
220
0
230
1
  2
SOLID
 70
    1
 71
    0
 91
    1
 92
    0
 93
   12
 72
    1
 10
0
 20
0
 11
45.5
 21
2.786071468060229e-15
 72
    1
 10
45.5
 20
2.786071468060229e-15
 11
45.5
 21
2.000000000000003
 72
    1
 10
45.5
 20
2.000000000000003
 11
36.21
 21
2.000000000000003
 72
    1
 10
36.21
 20
2.000000000000003
 11
36.21
 21
4.500000000000009
 72
    1
 10
36.21
 20
4.500000000000009
 11
34.71
 21
4.500000000000008
 72
    1
 10
34.71
 20
4.500000000000008
 11
34.71
 21
2.000000000000008
 72
    1
 10
34.71
 20
2.000000000000008
 11
10.79
 21
2.000000000000001
 72
    1
 10
10.79
 20
2.000000000000001
 11
10.79
 21
4.500000000000001
 72
    1
 10
10.79
 20
4.500000000000001
 11
9.289999999999999
 21
4.500000000000001
 72
    1
 10
9.289999999999999
 20
4.500000000000001
 11
9.289999999999999
 21
2
 72
    1
 10
9.289999999999999
 20
2
 11
1.224646799147353e-16
 21
2
 72
    1
 10
1.224646799147353e-16
 20
2
 11
0
 21
0
 97
    0
 75
    0
 76
    1
 98
    0
  0
HATCH
  5
D8
100
AcDbEntity
  8
0
  6
ByLayer
 62
  256
370
   -1
100
AcDbHatch
 10
0
 20
0
 30
0
210
0
220
0
230
1
  2
SOLID
 70
    1
 71
    0
 91
    1
 92
    0
 93
  124
 72
    1
 10
2.03352600998418e-15
 20
33.21
 11
-3.354919906264174e-15
 21
-10.79
 72
    1
 10
-3.354919906264174e-15
 20
-10.79
 11
3.999999999999996
 21
-10.79
 72
    1
 10
3.999999999999996
 20
-10.79
 11
3.999999999999997
 21
-1.5
 72
    1
 10
3.999999999999997
 20
-1.5
 11
9.999999999999996
 21
-1.5
 72
    1
 10
9.999999999999996
 20
-1.5
 11
9.999999999999995
 21
-10.79
 72
    1
 10
9.999999999999995
 20
-10.79
 11
13.99999999999999
 21
-10.79
 72
    1
 10
13.99999999999999
 20
-10.79
 11
14
 21
-1.5
 72
    1
 10
14
 20
-1.5
 11
20
 21
-1.5
 72
    1
 10
20
 20
-1.5
 11
20
 21
-10.79
 72
    1
 10
20
 20
-10.79
 11
24
 21
-10.79
 72
    1
 10
24
 20
-10.79
 11
24
 21
-1.5
 72
    1
 10
24
 20
-1.5
 11
30
 21
-1.5
 72
    1
 10
30
 20
-1.5
 11
30
 21
-10.79
 72
    1
 10
30
 20
-10.79
 11
34
 21
-10.79
 72
    1
 10
34
 20
-10.79
 11
34
 21
-1.5
 72
    1
 10
34.00000000000001
 20
-1.5
 11
40
 21
-1.5
 72
    1
 10
40
 20
-1.5
 11
40
 21
-10.79
 72
    1
 10
40
 20
-10.79
 11
44
 21
-10.79
 72
    1
 10
44
 20
-10.79
 11
44
 21
-1.5
 72
    1
 10
44.00000000000001
 20
-1.5
 11
50
 21
-1.5
 72
    1
 10
50
 20
-1.5
 11
50
 21
-10.79
 72
    1
 10
50
 20
-10.79
 11
54
 21
-10.79
 72
    1
 10
54
 20
-10.79
 11
54
 21
-1.5
 72
    1
 10
54.00000000000001
 20
-1.5
 11
60
 21
-1.5
 72
    1
 10
60
 20
-1.5
 11
60
 21
-10.79
 72
    1
 10
60
 20
-10.79
 11
64
 21
-10.79
 72
    1
 10
64
 20
-10.79
 11
64
 21
-1.5
 72
    1
 10
64.00000000000001
 20
-1.5
 11
70.00000000000001
 21
-1.5
 72
    1
 10
70.00000000000001
 20
-1.5
 11
70.00000000000001
 21
-10.79
 72
    1
 10
70.00000000000001
 20
-10.79
 11
74.00000000000001
 21
-10.79
 72
    1
 10
74.00000000000001
 20
-10.79
 11
74.00000000000001
 21
-1.5
 72
    1
 10
74.00000000000001
 20
-1.5
 11
80.00000000000001
 21
-1.5
 72
    1
 10
80.00000000000001
 20
-1.5
 11
80.00000000000001
 21
-10.79
 72
    1
 10
80.00000000000001
 20
-10.79
 11
84.00000000000001
 21
-10.79
 72
    1
 10
84.00000000000001
 20
-10.79
 11
84.00000000000001
 21
-1.5
 72
    1
 10
84.00000000000001
 20
-1.5
 11
90.00000000000001
 21
-1.5
 72
    1
 10
90.00000000000001
 20
-1.5
 11
90.00000000000001
 21
-10.79
 72
    1
 10
90.00000000000001
 20
-10.79
 11
94.00000000000001
 21
-10.79
 72
    1
 10
94.00000000000001
 20
-10.79
 11
94.00000000000001
 21
-1.5
 72
    1
 10
94.00000000000001
 20
-1.5
 11
100
 21
-1.5
 72
    1
 10
100
 20
-1.5
 11
100
 21
-10.79
 72
    1
 10
100
 20
-10.79
 11
104
 21
-10.79
 72
    1
 10
104
 20
-10.79
 11
104
 21
33.21
 72
    1
 10
104
 20
33.21
 11
100
 21
33.21
 72
    1
 10
100
 20
33.21
 11
100
 21
23.92
 72
    1
 10
100
 20
23.92
 11
94.00000000000001
 21
23.92
 72
    1
 10
94.00000000000001
 20
23.92
 11
94.00000000000001
 21
33.21
 72
    1
 10
94.00000000000001
 20
33.21
 11
90.00000000000001
 21
33.21
 72
    1
 10
90.00000000000001
 20
33.21
 11
90.00000000000001
 21
23.92
 72
    1
 10
90.00000000000001
 20
23.92
 11
84.00000000000001
 21
23.92
 72
    1
 10
84.00000000000001
 20
23.92
 11
84.00000000000001
 21
33.21
 72
    1
 10
84.00000000000001
 20
33.21
 11
80.00000000000001
 21
33.21
 72
    1
 10
80.00000000000001
 20
33.21
 11
80.00000000000001
 21
23.92
 72
    1
 10
80.00000000000001
 20
23.92
 11
74.00000000000001
 21
23.92
 72
    1
 10
74.00000000000001
 20
23.92
 11
74.00000000000001
 21
33.21
 72
    1
 10
74.00000000000001
 20
33.21
 11
70.00000000000001
 21
33.21
 72
    1
 10
70.00000000000001
 20
33.21
 11
70.00000000000001
 21
23.92
 72
    1
 10
70.00000000000001
 20
23.92
 11
64.00000000000001
 21
23.92
 72
    1
 10
64.00000000000001
 20
23.92
 11
64.00000000000001
 21
33.21
 72
    1
 10
64.00000000000001
 20
33.21
 11
60.00000000000001
 21
33.21
 72
    1
 10
60.00000000000001
 20
33.21
 11
60.00000000000001
 21
23.92
 72
    1
 10
60.00000000000001
 20
23.92
 11
54.00000000000001
 21
23.92
 72
    1
 10
54.00000000000001
 20
23.92
 11
54.00000000000001
 21
33.21
 72
    1
 10
54.00000000000001
 20
33.21
 11
50.00000000000001
 21
33.21
 72
    1
 10
50.00000000000001
 20
33.21
 11
50.00000000000001
 21
23.92
 72
    1
 10
50.00000000000001
 20
23.92
 11
44.00000000000001
 21
23.92
 72
    1
 10
44.00000000000001
 20
23.92
 11
44.00000000000001
 21
33.21
 72
    1
 10
44.00000000000001
 20
33.21
 11
40.00000000000001
 21
33.21
 72
    1
 10
40.00000000000001
 20
33.21
 11
40.00000000000001
 21
23.92
 72
    1
 10
40.00000000000001
 20
23.92
 11
34.00000000000001
 21
23.92
 72
    1
 10
34.00000000000001
 20
23.92
 11
34.00000000000001
 21
33.21
 72
    1
 10
34.00000000000001
 20
33.21
 11
30.00000000000001
 21
33.21
 72
    1
 10
30.00000000000001
 20
33.21
 11
30
 21
23.92
 72
    1
 10
30
 20
23.92
 11
24
 21
23.92
 72
    1
 10
24
 20
23.92
 11
24
 21
33.21
 72
    1
 10
24
 20
33.21
 11
20
 21
33.21
 72
    1
 10
20
 20
33.21
 11
20
 21
23.92
 72
    1
 10
20
 20
23.92
 11
14
 21
23.92
 72
    1
 10
14
 20
23.92
 11
14
 21
33.21
 72
    1
 10
14
 20
33.21
 11
10
 21
33.21
 72
    1
 10
10
 20
33.21
 11
10
 21
23.92
 72
    1
 10
10
 20
23.92
 11
4
 21
23.92
 72
    1
 10
4
 20
23.92
 11
4.000000000000002
 21
33.21
 72
    1
 10
4.000000000000002
 20
33.21
 11
2.03352600998418e-15
 21
33.21
 72
    1
 10
4
 20
22.42
 11
3.999999999999997
 21
0
 72
    1
 10
3.999999999999997
 20
0
 11
9.999999999999996
 21
0
 72
    1
 10
9.999999999999996
 20
0
 11
10
 21
22.42
 72
    1
 10
10
 20
22.42
 11
4
 21
22.42
 72
    1
 10
14
 20
22.42
 11
14
 21
0
 72
    1
 10
14
 20
0
 11
20
 21
0
 72
    1
 10
20
 20
0
 11
20
 21
22.42
 72
    1
 10
20
 20
22.42
 11
14
 21
22.42
 72
    1
 10
24
 20
22.42
 11
24
 21
0
 72
    1
 10
24
 20
0
 11
30
 21
0
 72
    1
 10
30
 20
0
 11
30
 21
22.42
 72
    1
 10
30
 20
22.42
 11
24
 21
22.42
 72
    1
 10
34.00000000000001
 20
22.42
 11
34
 21
0
 72
    1
 10
34.00000000000001
 20
0
 11
40
 21
0
 72
    1
 10
40
 20
0
 11
40.00000000000001
 21
22.42
 72
    1
 10
40.00000000000001
 20
22.42
 11
34.00000000000001
 21
22.42
 72
    1
 10
44.00000000000001
 20
22.42
 11
44
 21
0
 72
    1
 10
44.00000000000001
 20
0
 11
50
 21
0
 72
    1
 10
50
 20
0
 11
50.00000000000001
 21
22.42
 72
    1
 10
50.00000000000001
 20
22.42
 11
44.00000000000001
 21
22.42
 72
    1
 10
54.00000000000001
 20
22.42
 11
54
 21
0
 72
    1
 10
54.00000000000001
 20
0
 11
60
 21
0
 72
    1
 10
60
 20
0
 11
60.00000000000001
 21
22.42
 72
    1
 10
60.00000000000001
 20
22.42
 11
54.00000000000001
 21
22.42
 72
    1
 10
64.00000000000001
 20
22.42
 11
64
 21
0
 72
    1
 10
64.00000000000001
 20
0
 11
70.00000000000001
 21
0
 72
    1
 10
70.00000000000001
 20
0
 11
70.00000000000001
 21
22.42
 72
    1
 10
70.00000000000001
 20
22.42
 11
64.00000000000001
 21
22.42
 72
    1
 10
74.00000000000001
 20
22.42
 11
74.00000000000001
 21
0
 72
    1
 10
74.00000000000001
 20
0
 11
80.00000000000001
 21
0
 72
    1
 10
80.00000000000001
 20
0
 11
80.00000000000001
 21
22.42
 72
    1
 10
80.00000000000001
 20
22.42
 11
74.00000000000001
 21
22.42
 72
    1
 10
84.00000000000001
 20
22.42
 11
84.00000000000001
 21
0
 72
    1
 10
84.00000000000001
 20
0
 11
90.00000000000001
 21
0
 72
    1
 10
90.00000000000001
 20
0
 11
90.00000000000001
 21
22.42
 72
    1
 10
90.00000000000001
 20
22.42
 11
84.00000000000001
 21
22.42
 72
    1
 10
94.00000000000001
 20
22.42
 11
94.00000000000001
 21
0
 72
    1
 10
94.00000000000001
 20
0
 11
100
 21
0
 72
    1
 10
100
 20
0
 11
100
 21
22.42
 72
    1
 10
100
 20
22.42
 11
94.00000000000001
 21
22.42
 97
    0
 75
    0
 76
    1
 98
    0
  0
LINE
  5
D9
100
AcDbEntity
  8
cotes
  6
ByLayer
 62
  256
370
   -1
100
AcDbLine
 10
0
 20
0
 11
45.5
 21
2.786071468060229e-15
  0
LINE
  5
DA
100
AcDbEntity
  8
cotes
  6
ByLayer
 62
  256
370
   -1
100
AcDbLine
 10
1.224646799147353e-16
 20
2
 11
0
 21
0
  0
LINE
  5
DB
100
AcDbEntity
  8
cotes
  6
ByLayer
 62
  256
370
   -1
100
AcDbLine
 10
45.5
 20
2.000000000000003
 11
45.5
 21
2.786071468060229e-15
  0
LINE
  5
DC
100
AcDbEntity
  8
cotes
  6
ByLayer
 62
  256
370
   -1
100
AcDbLine
 10
1.224646799147353e-16
 20
2
 11
9.289999999999999
 21
2
  0
LINE
  5
DD
100
AcDbEntity
  8
cotes
  6
ByLayer
 62
  256
370
   -1
100
AcDbLine
 10
36.21
 20
2.000000000000003
 11
45.5
 21
2.000000000000003
  0
LINE
  5
DE
100
AcDbEntity
  8
cotes
  6
ByLayer
 62
  256
370
   -1
100
AcDbLine
 10
10.79
 20
2.000000000000001
 11
34.71
 21
2.000000000000008
  0
LINE
  5
DF
100
AcDbEntity
  8
cotes
  6
ByLayer
 62
  256
370
   -1
100
AcDbLine
 10
10.79
 20
2.000000000000001
 11
10.79
 21
4.500000000000001
  0
LINE
  5
E0
100
AcDbEntity
  8
cotes
  6
ByLayer
 62
  256
370
   -1
100
AcDbLine
 10
9.289999999999999
 20
4.500000000000001
 11
9.289999999999999
 21
2
  0
LINE
  5
E1
100
AcDbEntity
  8
cotes
  6
ByLayer
 62
  256
370
   -1
100
AcDbLine
 10
34.71
 20
4.500000000000008
 11
34.71
 21
2.000000000000008
  0
LINE
  5
E2
100
AcDbEntity
  8
cotes
  6
ByLayer
 62
  256
370
   -1
100
AcDbLine
 10
36.21
 20
2.000000000000003
 11
36.21
 21
4.500000000000009
  0
LINE
  5
E3
100
AcDbEntity
  8
cotes
  6
ByLayer
 62
  256
370
   -1
100
AcDbLine
 10
9.289999999999999
 20
4.500000000000001
 11
10.79
 21
4.500000000000001
  0
LINE
  5
E4
100
AcDbEntity
  8
cotes
  6
ByLayer
 62
  256
370
   -1
100
AcDbLine
 10
34.71
 20
4.500000000000008
 11
36.21
 21
4.500000000000009
  0
DIMENSION
  5
E5
100
AcDbEntity
  8
cotes
  6
ByLayer
 62
  256
370
   -1
100
AcDbDimension
  2
*D1
 10
9.289999999999999
 20
5.941273659991859
 30
0
 11
4.645
 21
11.56627365999186
 31
0
 70
   32
 71
    5
 72
    0
  3
Standard
 53
0
210
0
220
0
230
1
100
AcDbAlignedDimension
 13
1.224646799147353e-16
 23
2
 33
0
 14
9.289999999999999
 24
2
 34
0
100
AcDbRotatedDimension
  0
DIMENSION
  5
E6
100
AcDbEntity
  8
cotes
  6
ByLayer
 62
  256
370
   -1
100
AcDbDimension
  2
*D2
 10
10.79
 20
5.941273659991858
 30
0
 11
10.04
 21
11.56627365999186
 31
0
 70
   32
 71
    5
 72
    0
  3
Standard
 53
0
210
0
220
0
230
1
100
AcDbAlignedDimension
 13
9.289999999999999
 23
4.500000000000001
 33
0
 14
10.79
 24
4.500000000000001
 34
0
100
AcDbRotatedDimension
  0
DIMENSION
  5
E7
100
AcDbEntity
  8
cotes
  6
ByLayer
 62
  256
370
   -1
100
AcDbDimension
  2
*D3
 10
34.71
 20
5.941273659991857
 30
0
 11
22.75
 21
11.56627365999186
 31
0
 70
   32
 71
    5
 72
    0
  3
Standard
 53
0
210
0
220
0
230
1
100
AcDbAlignedDimension
 13
10.79
 23
4.500000000000001
 33
0
 14
34.71
 24
4.500000000000008
 34
0
100
AcDbRotatedDimension
  0
DIMENSION
  5
E8
100
AcDbEntity
  8
cotes
  6
ByLayer
 62
  256
370
   -1
100
AcDbDimension
  2
*D4
 10
36.21
 20
5.941273659991857
 30
0
 11
35.46
 21
11.56627365999186
 31
0
 70
   32
 71
    5
 72
    0
  3
Standard
 53
0
210
0
220
0
230
1
100
AcDbAlignedDimension
 13
34.71
 23
4.500000000000008
 33
0
 14
36.21
 24
4.500000000000009
 34
0
100
AcDbRotatedDimension
  0
DIMENSION
  5
E9
100
AcDbEntity
  8
cotes
  6
ByLayer
 62
  256
370
   -1
100
AcDbDimension
  2
*D5
 10
45.5
 20
5.941273659991856
 30
0
 11
40.855
 21
11.56627365999186
 31
0
 70
   32
 71
    5
 72
    0
  3
Standard
 53
0
210
0
220
0
230
1
100
AcDbAlignedDimension
 13
36.21
 23
4.500000000000009
 33
0
 14
45.5
 24
2.000000000000003
 34
0
100
AcDbRotatedDimension
  0
DIMENSION
  5
EA
100
AcDbEntity
  8
cotes
  6
ByLayer
 62
  256
370
   -1
100
AcDbDimension
  2
*D6
 10
45.5
 20
9.828773709122331
 30
0
 11
22.75
 21
15.45377370912233
 31
0
 70
   32
 71
    5
 72
    0
  3
Standard
 53
0
210
0
220
0
230
1
100
AcDbAlignedDimension
 13
1.224646799147353e-16
 23
2
 33
0
 14
45.5
 24
2.000000000000003
 34
0
100
AcDbRotatedDimension
  0
DIMENSION
  5
EB
100
AcDbEntity
  8
cotes
  6
ByLayer
 62
  256
370
   -1
100
AcDbDimension
  2
*D7
 10
-6.014622717522623
 20
2.000000000000001
 30
0
 11
-11.63962271752262
 21
1.000000000000001
 31
0
 70
   32
 71
    5
 72
    0
  3
Standard
 53
0
210
0
220
0
230
1
100
AcDbAlignedDimension
 13
0
 23
0
 33
0
 14
1.224646799147353e-16
 24
2
 34
0
 50
90
100
AcDbRotatedDimension
  0
DIMENSION
  5
EC
100
AcDbEntity
  8
cotes
  6
ByLayer
 62
  256
370
   -1
100
AcDbDimension
  2
*D8
 10
-3.2273585313536
 20
4.500000000000003
 30
0
 11
-8.8523585313536
 21
3.250000000000001
 31
0
 70
   32
 71
    5
 72
    0
  3
Standard
 53
0
210
0
220
0
230
1
100
AcDbAlignedDimension
 13
1.224646799147353e-16
 23
2
 33
0
 14
9.289999999999999
 24
4.500000000000001
 34
0
 50
90
100
AcDbRotatedDimension
  0
LINE
  5
ED
100
AcDbEntity
  8
rails-courbes-reverse
  6
ByLayer
 62
  256
370
   -1
100
AcDbLine
 10
-36.70023008119075
 20
-81.13653507877676
 11
-32.89600401601014
 21
-82.37260305627655
  0
LINE
  5
EE
100
AcDbEntity
  8
rails-courbes-reverse
  6
ByLayer
 62
  256
370
   -1
100
AcDbLine
 10
-22.16974909490483
 20
-85.72494763297476
 11
-18.32470231115155
 21
-86.82749705624275
  0
LINE
  5
EF
100
AcDbEntity
  8
rails-courbes-reverse
  6
ByLayer
 62
  256
370
   -1
100
AcDbLine
 10
-7.487986396230367
 20
-89.80345857695281
 11
-3.606803491126378
 21
-90.77114615935147
  0
LINE
  5
F0
100
AcDbEntity
  8
rails-courbes-reverse
  6
ByLayer
 62
  256
370
   -1
100
AcDbLine
 10
7.327170548536522
 20
-93.36709887337221
 11
11.23976095147175
 21
-94.19874563664325
  0
LINE
  5
F1
100
AcDbEntity
  8
rails-courbes-reverse
  6
ByLayer
 62
  256
370
   -1
100
AcDbLine
 10
22.25767175275859
 20
-96.41152677546837
 11
26.19690276480743
 21
-97.10611948613609
  0
LINE
  5
F2
100
AcDbEntity
  8
rails-courbes-reverse
  6
ByLayer
 62
  256
370
   -1
100
AcDbLine
 10
37.28532670058587
 20
-98.93303311680086
 11
41.24639897555218
 21
-99.48972552064112
  0
LINE
  5
F3
100
AcDbEntity
  8
rails-courbes-reverse
  6
ByLayer
 62
  256
370
   -1
100
AcDbLine
 10
52.3918265092973
 20
-100.928545830301
 11
56.36991409077037
 21
-101.3466596833716
  0
LINE
  5
F4
100
AcDbEntity
  8
rails-courbes-reverse
  6
ByLayer
 62
  256
370
   -1
100
AcDbLine
 10
67.55876623585377
 20
-102.3956336911126
 11
71.5490224368931
 21
-102.6746595860891
  0
LINE
  5
F5
100
AcDbEntity
  8
rails-courbes-reverse
  6
ByLayer
 62
  256
370
   -1
100
AcDbLine
 10
82.76766730048652
 20
-103.3325092786648
 11
86.7652306085629
 21
-103.4721072654748
  0
LINE
  5
F6
100
AcDbEntity
  8
rails-courbes-reverse
  6
ByLayer
 62
  256
370
   -1
100
AcDbLine
 10
-22.5339284803875
 20
-37.53714185932512
 11
-18.73602987223578
 21
-38.79268374715495
  0
LINE
  5
F7
100
AcDbEntity
  8
rails-courbes-reverse
  6
ByLayer
 62
  256
370
   -1
100
AcDbLine
 10
-9.533674102169403
 20
-41.65771718985232
 11
-5.694271291259827
 21
-42.77994948553605
  0
LINE
  5
F8
100
AcDbEntity
  8
rails-courbes-reverse
  6
ByLayer
 62
  256
370
   -1
100
AcDbLine
 10
3.602466877496697
 20
-45.32208004241808
 11
7.478696170253736
 21
-46.30963547877006
  0
LINE
  5
F9
100
AcDbEntity
  8
rails-courbes-reverse
  6
ByLayer
 62
  256
370
   -1
100
AcDbLine
 10
16.85849009429456
 20
-48.52576595533837
 11
20.76682328059317
 21
-49.37744134818067
  0
LINE
  5
FA
100
AcDbEntity
  8
rails-courbes-reverse
  6
ByLayer
 62
  256
370
   -1
100
AcDbLine
 10
30.21824512586834
 20
-51.26487173081831
 11
34.15392050375358
 21
-51.9796294448753
  0
LINE
  5
FB
100
AcDbEntity
  8
rails-courbes-reverse
  6
ByLayer
 62
  256
370
   -1
100
AcDbLine
 10
43.66545516862453
 20
-53.53606019039734
 11
47.62367772389276
 21
-54.11302940349442
  0
LINE
  5
FC
100
AcDbEntity
  8
rails-courbes-reverse
  6
ByLayer
 62
  256
370
   -1
100
AcDbLine
 10
57.18373686850992
 20
-55.33656424078727
 11
61.15968411669502
 21
-55.77504200481356
  0
LINE
  5
FD
100
AcDbEntity
  8
rails-courbes-reverse
  6
ByLayer
 62
  256
370
   -1
100
AcDbLine
 10
70.75662028160497
 20
-56.66419024514904
 11
74.74544814343268
 21
-56.96364234249141
  0
LINE
  5
FE
100
AcDbEntity
  8
rails-courbes-reverse
  6
ByLayer
 62
  256
370
   -1
100
AcDbLine
 10
84.36756894021313
 20
-57.51732069570149
 11
88.36441764336578
 21
-57.67738229010638
  0
ARC
  5
FF
100
AcDbEntity
  8
rails-courbes-reverse
  6
ByLayer
 62
  256
370
   -1
100
AcDbCircle
 10
101.9999999999998
 20
332.7946077345245
 40
426.92
100
AcDbArc
 50
250.2684155771087
 51
251.4631629547075
  0
ARC
  5
100
100
AcDbEntity
  8
rails-courbes-reverse
  6
ByLayer
 62
  256
370
   -1
100
AcDbCircle
 10
101.9999999999998
 20
332.7946077345245
 40
425.42
100
AcDbArc
 50
250.2693619978851
 51
251.4612700506181
  0
ARC
  5
101
100
AcDbEntity
  8
rails-courbes-reverse
  6
ByLayer
 62
  256
370
   -1
100
AcDbCircle
 10
101.9999999999998
 20
332.7946077345245
 40
401.5
100
AcDbArc
 50
250.2854097956048
 51
251.4291733263941
  0
LINE
  5
102
100
AcDbEntity
  8
rails-courbes-reverse
  6
ByLayer
 62
  256
370
   -1
100
AcDbLine
 10
-33.72397054618525
 20
-71.97655010552995
 11
-36.70023008119075
 21
-81.13653507877676
  0
LINE
  5
103
100
AcDbEntity
  8
rails-courbes-reverse
  6
ByLayer
 62
  256
370
   -1
100
AcDbLine
 10
-25.86839190373162
 20
-47.79956504266573
 11
-33.26042463593156
 21
-70.54990248881734
  0
LINE
  5
104
100
AcDbEntity
  8
rails-courbes-reverse
  6
ByLayer
 62
  256
370
   -1
100
AcDbLine
 10
-22.5339284803875
 20
-37.53714185932512
 11
-25.40484332075596
 21
-46.3729092001592
  0
ARC
  5
105
100
AcDbEntity
  8
rails-courbes-reverse
  6
ByLayer
 62
  256
370
   -1
100
AcDbCircle
 10
101.9999999999998
 20
332.7946077345245
 40
400
100
AcDbArc
 50
250.2864800912409
 51
251.4270326551429
  0
LINE
  5
106
100
AcDbEntity
  8
rails-courbes-reverse
  6
ByLayer
 62
  256
370
   -1
100
AcDbLine
 10
-18.73602987223578
 20
-38.79268374715495
 11
-21.60679774997905
 21
-47.62799878353695
  0
LINE
  5
107
100
AcDbEntity
  8
rails-courbes-reverse
  6
ByLayer
 62
  256
370
   -1
100
AcDbLine
 10
-9.533674102169403
 20
-41.65771718985232
 11
-12.09447622561112
 21
-50.58829550296142
  0
LINE
  5
108
100
AcDbEntity
  8
rails-courbes-reverse
  6
ByLayer
 62
  256
370
   -1
100
AcDbLine
 10
-5.694271291259827
 20
-42.77994948553605
 11
-8.254942326799757
 21
-51.71007064080305
  0
LINE
  5
109
100
AcDbEntity
  8
rails-courbes-reverse
  6
ByLayer
 62
  256
370
   -1
100
AcDbLine
 10
3.602466877496697
 20
-45.32208004241808
 11
1.354897413907824
 21
-54.33658879377779
  0
LINE
  5
10A
100
AcDbEntity
  8
rails-courbes-reverse
  6
ByLayer
 62
  256
370
   -1
100
AcDbLine
 10
7.478696170253736
 20
-46.30963547877006
 11
5.231241760132824
 21
-55.3236827758741
  0
LINE
  5
10B
100
AcDbEntity
  8
rails-courbes-reverse
  6
ByLayer
 62
  256
370
   -1
100
AcDbLine
 10
16.85849009429456
 20
-48.52576595533837
 11
14.92689160773836
 21
-57.6132223546138
  0
LINE
  5
10C
100
AcDbEntity
  8
rails-courbes-reverse
  6
ByLayer
 62
  256
370
   -1
100
AcDbLine
 10
20.76682328059317
 20
-49.37744134818067
 11
18.83532367289617
 21
-58.46443255899776
  0
LINE
  5
10D
100
AcDbEntity
  8
rails-courbes-reverse
  6
ByLayer
 62
  256
370
   -1
100
AcDbLine
 10
30.21824512586834
 20
-51.26487173081831
 11
28.6049709715607
 21
-60.41420411220227
  0
LINE
  5
10E
100
AcDbEntity
  8
rails-courbes-reverse
  6
ByLayer
 62
  256
370
   -1
100
AcDbLine
 10
34.15392050375358
 20
-51.9796294448753
 11
32.54072893322775
 21
-61.12849347035873
  0
LINE
  5
10F
100
AcDbEntity
  8
rails-courbes-reverse
  6
ByLayer
 62
  256
370
   -1
100
AcDbLine
 10
43.66545516862453
 20
-53.53606019039734
 11
42.37247087261668
 21
-62.73612150172975
  0
LINE
  5
110
100
AcDbEntity
  8
rails-courbes-reverse
  6
ByLayer
 62
  256
370
   -1
100
AcDbLine
 10
47.62367772389276
 20
-54.11302940349442
 11
46.3307596159737
 21
-63.31261976210364
  0
LINE
  5
111
100
AcDbEntity
  8
rails-courbes-reverse
  6
ByLayer
 62
  256
370
   -1
100
AcDbLine
 10
57.18373686850992
 20
-55.33656424078727
 11
56.21261773299761
 21
-64.57614562452105
  0
LINE
  5
112
100
AcDbEntity
  8
rails-courbes-reverse
  6
ByLayer
 62
  256
370
   -1
100
AcDbLine
 10
61.15968411669502
 20
-55.77504200481356
 11
60.18861469293852
 21
-65.01415041278484
  0
LINE
  5
113
100
AcDbEntity
  8
rails-courbes-reverse
  6
ByLayer
 62
  256
370
   -1
100
AcDbLine
 10
70.75662028160497
 20
-56.66419024514904
 11
70.10854946566536
 21
-65.93203469461653
  0
LINE
  5
114
100
AcDbEntity
  8
rails-courbes-reverse
  6
ByLayer
 62
  256
370
   -1
100
AcDbLine
 10
74.74544814343268
 20
-56.96364234249141
 11
74.09741050234976
 21
-66.23101236940521
  0
LINE
  5
115
100
AcDbEntity
  8
rails-courbes-reverse
  6
ByLayer
 62
  256
370
   -1
100
AcDbLine
 10
84.36756894021313
 20
-57.51732069570149
 11
84.04333601830777
 21
-66.80213677004301
  0
LINE
  5
116
100
AcDbEntity
  8
rails-courbes-reverse
  6
ByLayer
 62
  256
370
   -1
100
AcDbLine
 10
88.36441764336578
 20
-57.67738229010638
 11
88.04020131899951
 21
-66.9617230731138
  0
LINE
  5
117
100
AcDbEntity
  8
rails-courbes-reverse
  6
ByLayer
 62
  256
370
   -1
100
AcDbLine
 10
-22.07032324154148
 20
-49.05458355797968
 11
-12.50795285644395
 21
-52.03025987751852
  0
LINE
  5
118
100
AcDbEntity
  8
rails-courbes-reverse
  6
ByLayer
 62
  256
370
   -1
100
AcDbLine
 10
-21.60679774997905
 20
-47.62799878353695
 11
-12.09447622561112
 21
-50.58829550296142
  0
LINE
  5
119
100
AcDbEntity
  8
rails-courbes-reverse
  6
ByLayer
 62
  256
370
   -1
100
AcDbLine
 10
-8.668398360525249
 20
-53.15196318471054
 11
0.9919964928016932
 21
-55.7921048889128
  0
LINE
  5
11A
100
AcDbEntity
  8
rails-courbes-reverse
  6
ByLayer
 62
  256
370
   -1
100
AcDbLine
 10
4.868358916733317
 20
-56.77912636528809
 11
14.61500853523072
 21
-59.08051684816986
  0
LINE
  5
11B
100
AcDbEntity
  8
rails-courbes-reverse
  6
ByLayer
 62
  256
370
   -1
100
AcDbLine
 10
18.52345613666953
 20
-59.93165396009847
 11
28.3444857291335
 21
-61.89148933185837
  0
LINE
  5
11C
100
AcDbEntity
  8
rails-courbes-reverse
  6
ByLayer
 62
  256
370
   -1
100
AcDbLine
 10
32.28025666672735
 20
-62.60570509987704
 11
42.16370082141313
 21
-64.22159760300408
  0
LINE
  5
11D
100
AcDbEntity
  8
rails-courbes-reverse
  6
ByLayer
 62
  256
370
   -1
100
AcDbLine
 10
46.12199996453361
 20
-64.79802186521599
 11
56.05581722716656
 21
-66.06800278360427
  0
LINE
  5
11E
100
AcDbEntity
  8
rails-courbes-reverse
  6
ByLayer
 62
  256
370
   -1
100
AcDbLine
 10
60.031821998037
 20
-66.50593325583725
 11
70.00390954246986
 21
-67.42845531336329
  0
LINE
  5
11F
100
AcDbEntity
  8
rails-courbes-reverse
  6
ByLayer
 62
  256
370
   -1
100
AcDbLine
 10
73.99277579173359
 20
-67.72735844479494
 11
83.99098416537572
 21
-68.30129769043526
  0
LINE
  5
120
100
AcDbEntity
  8
rails-courbes-reverse
  6
ByLayer
 62
  256
370
   -1
100
AcDbLine
 10
87.98785207394576
 20
-68.46080931364244
 11
99.99999999999986
 21
-68.70041091452424
  0
LINE
  5
121
100
AcDbEntity
  8
rails-courbes-reverse
  6
ByLayer
 62
  256
370
   -1
100
AcDbLine
 10
99.99999999999986
 20
-67.20039223422511
 11
88.04020131899951
 21
-66.9617230731138
  0
LINE
  5
122
100
AcDbEntity
  8
rails-courbes-reverse
  6
ByLayer
 62
  256
370
   -1
100
AcDbLine
 10
84.04333601830777
 20
-66.80213677004301
 11
74.09741050234976
 21
-66.23101236940521
  0
LINE
  5
123
100
AcDbEntity
  8
rails-courbes-reverse
  6
ByLayer
 62
  256
370
   -1
100
AcDbLine
 10
70.10854946566536
 20
-65.93203469461653
 11
60.18861469293852
 21
-65.01415041278484
  0
LINE
  5
124
100
AcDbEntity
  8
rails-courbes-reverse
  6
ByLayer
 62
  256
370
   -1
100
AcDbLine
 10
56.21261773299761
 20
-64.57614562452105
 11
46.3307596159737
 21
-63.31261976210364
  0
LINE
  5
125
100
AcDbEntity
  8
rails-courbes-reverse
  6
ByLayer
 62
  256
370
   -1
100
AcDbLine
 10
42.37247087261668
 20
-62.73612150172975
 11
32.54072893322775
 21
-61.12849347035873
  0
LINE
  5
126
100
AcDbEntity
  8
rails-courbes-reverse
  6
ByLayer
 62
  256
370
   -1
100
AcDbLine
 10
28.6049709715607
 20
-60.41420411220227
 11
18.83532367289617
 21
-58.46443255899776
  0
LINE
  5
127
100
AcDbEntity
  8
rails-courbes-reverse
  6
ByLayer
 62
  256
370
   -1
100
AcDbLine
 10
14.92689160773836
 20
-57.6132223546138
 11
5.231241760132824
 21
-55.3236827758741
  0
LINE
  5
128
100
AcDbEntity
  8
rails-courbes-reverse
  6
ByLayer
 62
  256
370
   -1
100
AcDbLine
 10
1.354897413907824
 20
-54.33658879377779
 11
-8.254942326799757
 21
-51.71007064080305
  0
LINE
  5
129
100
AcDbEntity
  8
rails-courbes-reverse
  6
ByLayer
 62
  256
370
   -1
100
AcDbLine
 10
-29.92553523855264
 20
-73.23044020220249
 11
-32.89600401601014
 21
-82.37260305627655
  0
LINE
  5
12A
100
AcDbEntity
  8
rails-courbes-reverse
  6
ByLayer
 62
  256
370
   -1
100
AcDbLine
 10
-22.07032324154148
 20
-49.05458355797968
 11
-29.46200974699022
 21
-71.80385542775977
  0
LINE
  5
12B
100
AcDbEntity
  8
rails-courbes-reverse
  6
ByLayer
 62
  256
370
   -1
100
AcDbLine
 10
-19.51498148216114
 20
-76.46667271525133
 11
-22.16974909490483
 21
-85.72494763297476
  0
LINE
  5
12C
100
AcDbEntity
  8
rails-courbes-reverse
  6
ByLayer
 62
  256
370
   -1
100
AcDbLine
 10
-12.50795285644395
 20
-52.03025987751852
 11
-19.10150723534651
 21
-75.02471665475376
  0
LINE
  5
12D
100
AcDbEntity
  8
rails-courbes-reverse
  6
ByLayer
 62
  256
370
   -1
100
AcDbLine
 10
-8.668398360525249
 20
-53.15196318471054
 11
-15.26164391166788
 21
-76.14534295155515
  0
LINE
  5
12E
100
AcDbEntity
  8
rails-courbes-reverse
  6
ByLayer
 62
  256
370
   -1
100
AcDbLine
 10
-15.67509994539337
 20
-77.58723549546261
 11
-18.32470231115155
 21
-86.82749705624275
  0
LINE
  5
12F
100
AcDbEntity
  8
rails-courbes-reverse
  6
ByLayer
 62
  256
370
   -1
100
AcDbLine
 10
0.9919964928016932
 20
-55.7921048889128
 11
-4.795046302452175
 21
-79.00266579367305
  0
LINE
  5
130
100
AcDbEntity
  8
rails-courbes-reverse
  6
ByLayer
 62
  256
370
   -1
100
AcDbLine
 10
-5.157945131148863
 20
-80.45817349661219
 11
-7.487986396230367
 21
-89.80345857695281
  0
LINE
  5
131
100
AcDbEntity
  8
rails-courbes-reverse
  6
ByLayer
 62
  256
370
   -1
100
AcDbLine
 10
-1.281295669410237
 20
-81.44404372722393
 11
-3.606803491126378
 21
-90.77114615935147
  0
LINE
  5
132
100
AcDbEntity
  8
rails-courbes-reverse
  6
ByLayer
 62
  256
370
   -1
100
AcDbLine
 10
4.868358916733317
 20
-56.77912636528809
 11
-0.9184128260107403
 21
-79.98860013780995
  0
LINE
  5
133
100
AcDbEntity
  8
rails-courbes-reverse
  6
ByLayer
 62
  256
370
   -1
100
AcDbLine
 10
9.329646669589657
 20
-83.94618942075395
 11
7.327170548536522
 21
-93.36709887337221
  0
LINE
  5
134
100
AcDbEntity
  8
rails-courbes-reverse
  6
ByLayer
 62
  256
370
   -1
100
AcDbLine
 10
14.61500853523072
 20
-59.08051684816986
 11
9.641527943845908
 21
-82.47890338730548
  0
LINE
  5
135
100
AcDbEntity
  8
rails-courbes-reverse
  6
ByLayer
 62
  256
370
   -1
100
AcDbLine
 10
13.2383409560821
 20
-84.79616597075182
 11
11.23976095147175
 21
-94.19874563664325
  0
LINE
  5
136
100
AcDbEntity
  8
rails-courbes-reverse
  6
ByLayer
 62
  256
370
   -1
100
AcDbLine
 10
18.52345613666953
 20
-59.93165396009847
 11
13.55020849230873
 21
-83.32894456965113
  0
LINE
  5
137
100
AcDbEntity
  8
rails-courbes-reverse
  6
ByLayer
 62
  256
370
   -1
100
AcDbLine
 10
28.3444857291335
 20
-61.89148933185837
 11
24.19062676161244
 21
-85.4491941756166
  0
LINE
  5
138
100
AcDbEntity
  8
rails-courbes-reverse
  6
ByLayer
 62
  256
370
   -1
100
AcDbLine
 10
23.93014302108769
 20
-86.92647087756069
 11
22.25767175275859
 21
-96.41152677546837
  0
LINE
  5
139
100
AcDbEntity
  8
rails-courbes-reverse
  6
ByLayer
 62
  256
370
   -1
100
AcDbLine
 10
27.866119990434
 20
-87.63951818144739
 11
26.19690276480743
 21
-97.10611948613609
  0
LINE
  5
13A
100
AcDbEntity
  8
rails-courbes-reverse
  6
ByLayer
 62
  256
370
   -1
100
AcDbLine
 10
32.28025666672735
 20
-62.60570509987704
 11
28.12659225693441
 21
-86.16230655192909
  0
LINE
  5
13B
100
AcDbEntity
  8
rails-courbes-reverse
  6
ByLayer
 62
  256
370
   -1
100
AcDbLine
 10
38.62575546757488
 20
-89.39538685315449
 11
37.28532670058587
 21
-98.93303311680086
  0
LINE
  5
13C
100
AcDbEntity
  8
rails-courbes-reverse
  6
ByLayer
 62
  256
370
   -1
100
AcDbLine
 10
42.16370082141313
 20
-64.22159760300408
 11
38.83452431505479
 21
-87.90991931681903
  0
LINE
  5
13D
100
AcDbEntity
  8
rails-courbes-reverse
  6
ByLayer
 62
  256
370
   -1
100
AcDbLine
 10
42.58421973812876
 20
-89.97063617262671
 11
41.24639897555218
 21
-99.48972552064112
  0
LINE
  5
13E
100
AcDbEntity
  8
rails-courbes-reverse
  6
ByLayer
 62
  256
370
   -1
100
AcDbLine
 10
46.12199996453361
 20
-64.79802186521599
 11
42.79297938956885
 21
-88.48523406951438
  0
LINE
  5
13F
100
AcDbEntity
  8
rails-courbes-reverse
  6
ByLayer
 62
  256
370
   -1
100
AcDbLine
 10
53.39857966897087
 20
-91.34992935372641
 11
52.3918265092973
 21
-100.928545830301
  0
LINE
  5
140
100
AcDbEntity
  8
rails-courbes-reverse
  6
ByLayer
 62
  256
370
   -1
100
AcDbLine
 10
56.05581722716656
 20
-66.06800278360427
 11
53.55537927072364
 21
-89.85808079637388
  0
LINE
  5
141
100
AcDbEntity
  8
rails-courbes-reverse
  6
ByLayer
 62
  256
370
   -1
100
AcDbLine
 10
57.3747084617733
 20
-91.78667983609877
 11
56.36991409077037
 21
-101.3466596833716
  0
LINE
  5
142
100
AcDbEntity
  8
rails-courbes-reverse
  6
ByLayer
 62
  256
370
   -1
100
AcDbLine
 10
60.031821998037
 20
-66.50593325583725
 11
57.53150115667474
 21
-90.29489699304639
  0
LINE
  5
143
100
AcDbEntity
  8
rails-courbes-reverse
  6
ByLayer
 62
  256
370
   -1
100
AcDbLine
 10
68.23061721456531
 20
-92.78771707031372
 11
67.55876623585377
 21
-102.3956336911126
  0
LINE
  5
144
100
AcDbEntity
  8
rails-courbes-reverse
  6
ByLayer
 62
  256
370
   -1
100
AcDbLine
 10
70.00390954246986
 20
-67.42845531336329
 11
68.33525653442929
 21
-91.2913050796096
  0
LINE
  5
145
100
AcDbEntity
  8
rails-courbes-reverse
  6
ByLayer
 62
  256
370
   -1
100
AcDbLine
 10
72.21956622915789
 20
-93.08543660239968
 11
71.5490224368931
 21
-102.6746595860891
  0
LINE
  5
146
100
AcDbEntity
  8
rails-courbes-reverse
  6
ByLayer
 62
  256
370
   -1
100
AcDbLine
 10
73.99277579173359
 20
-67.72735844479494
 11
72.32420093977407
 21
-91.58909052700997
  0
LINE
  5
147
100
AcDbEntity
  8
rails-courbes-reverse
  6
ByLayer
 62
  256
370
   -1
100
AcDbLine
 10
83.10379755130911
 20
-93.70699828005795
 11
82.76766730048652
 21
-103.3325092786648
  0
LINE
  5
148
100
AcDbEntity
  8
rails-courbes-reverse
  6
ByLayer
 62
  256
370
   -1
100
AcDbLine
 10
83.99098416537572
 20
-68.30129769043526
 11
83.15614910239159
 21
-92.20784600350834
  0
LINE
  5
149
100
AcDbEntity
  8
rails-courbes-reverse
  6
ByLayer
 62
  256
370
   -1
100
AcDbLine
 10
87.10070686776817
 20
-93.86532413646786
 11
86.7652306085629
 21
-103.4721072654748
  0
LINE
  5
14A
100
AcDbEntity
  8
rails-courbes-reverse
  6
ByLayer
 62
  256
370
   -1
100
AcDbLine
 10
87.98785207394576
 20
-68.46080931364244
 11
87.15305611282191
 21
-92.36623789593925
  0
LINE
  5
14B
100
AcDbEntity
  8
rails-courbes-reverse
  6
ByLayer
 62
  256
370
   -1
100
AcDbLine
 10
-29.92553523855264
 20
-73.23044020220249
 11
-19.51498148216114
 21
-76.46667271525133
  0
LINE
  5
14C
100
AcDbEntity
  8
rails-courbes-reverse
  6
ByLayer
 62
  256
370
   -1
100
AcDbLine
 10
-15.67509994539337
 20
-77.58723549546261
 11
-5.157945131148863
 21
-80.45817349661219
  0
LINE
  5
14D
100
AcDbEntity
  8
rails-courbes-reverse
  6
ByLayer
 62
  256
370
   -1
100
AcDbLine
 10
-1.281295669410237
 20
-81.44404372722393
 11
9.329646669589657
 21
-83.94618942075395
  0
LINE
  5
14E
100
AcDbEntity
  8
rails-courbes-reverse
  6
ByLayer
 62
  256
370
   -1
100
AcDbLine
 10
13.2383409560821
 20
-84.79616597075182
 11
23.93014302108769
 21
-86.92647087756069
  0
LINE
  5
14F
100
AcDbEntity
  8
rails-courbes-reverse
  6
ByLayer
 62
  256
370
   -1
100
AcDbLine
 10
27.866119990434
 20
-87.63951818144739
 11
38.62575546757488
 21
-89.39538685315449
  0
LINE
  5
150
100
AcDbEntity
  8
rails-courbes-reverse
  6
ByLayer
 62
  256
370
   -1
100
AcDbLine
 10
-29.46200974699022
 20
-71.80385542775977
 11
-19.10150723534651
 21
-75.02471665475376
  0
LINE
  5
151
100
AcDbEntity
  8
rails-courbes-reverse
  6
ByLayer
 62
  256
370
   -1
100
AcDbLine
 10
-15.26164391166788
 20
-76.14534295155515
 11
-4.795046302452175
 21
-79.00266579367305
  0
LINE
  5
152
100
AcDbEntity
  8
rails-courbes-reverse
  6
ByLayer
 62
  256
370
   -1
100
AcDbLine
 10
-0.9184128260107403
 20
-79.98860013780995
 11
9.641527943845908
 21
-82.47890338730548
  0
LINE
  5
153
100
AcDbEntity
  8
rails-courbes-reverse
  6
ByLayer
 62
  256
370
   -1
100
AcDbLine
 10
13.55020849230873
 20
-83.32894456965113
 11
24.19062676161244
 21
-85.4491941756166
  0
LINE
  5
154
100
AcDbEntity
  8
rails-courbes-reverse
  6
ByLayer
 62
  256
370
   -1
100
AcDbLine
 10
28.12659225693441
 20
-86.16230655192909
 11
38.83452431505479
 21
-87.90991931681903
  0
LINE
  5
155
100
AcDbEntity
  8
rails-courbes-reverse
  6
ByLayer
 62
  256
370
   -1
100
AcDbLine
 10
42.58421973812876
 20
-89.97063617262671
 11
53.39857966897087
 21
-91.34992935372641
  0
LINE
  5
156
100
AcDbEntity
  8
rails-courbes-reverse
  6
ByLayer
 62
  256
370
   -1
100
AcDbLine
 10
57.3747084617733
 20
-91.78667983609877
 11
68.23061721456531
 21
-92.78771707031372
  0
LINE
  5
157
100
AcDbEntity
  8
rails-courbes-reverse
  6
ByLayer
 62
  256
370
   -1
100
AcDbLine
 10
72.21956622915789
 20
-93.08543660239968
 11
83.10379755130911
 21
-93.70699828005795
  0
LINE
  5
158
100
AcDbEntity
  8
rails-courbes-reverse
  6
ByLayer
 62
  256
370
   -1
100
AcDbLine
 10
87.10070686776817
 20
-93.86532413646786
 11
99.99999999999994
 21
-94.12070752132341
  0
LINE
  5
159
100
AcDbEntity
  8
rails-courbes-reverse
  6
ByLayer
 62
  256
370
   -1
100
AcDbLine
 10
42.79297938956885
 20
-88.48523406951438
 11
53.55537927072364
 21
-89.85808079637388
  0
LINE
  5
15A
100
AcDbEntity
  8
rails-courbes-reverse
  6
ByLayer
 62
  256
370
   -1
100
AcDbLine
 10
57.53150115667474
 20
-90.29489699304639
 11
68.33525653442929
 21
-91.2913050796096
  0
LINE
  5
15B
100
AcDbEntity
  8
rails-courbes-reverse
  6
ByLayer
 62
  256
370
   -1
100
AcDbLine
 10
72.32420093977407
 20
-91.58909052700997
 11
83.15614910239159
 21
-92.20784600350834
  0
LINE
  5
15C
100
AcDbEntity
  8
rails-courbes-reverse
  6
ByLayer
 62
  256
370
   -1
100
AcDbLine
 10
87.15305611282191
 20
-92.36623789593925
 11
99.99999999999984
 21
-92.62069100307382
  0
LINE
  5
15D
100
AcDbEntity
  8
rails-courbes-reverse
  6
ByLayer
 62
  256
370
   -1
100
AcDbLine
 10
99.99999999999984
 20
-57.58307076322932
 11
101.9999999999998
 21
-57.58307076322932
  0
LINE
  5
15E
100
AcDbEntity
  8
rails-courbes-reverse
  6
ByLayer
 62
  256
370
   -1
100
AcDbLine
 10
99.99999999999984
 20
-103.4108285717859
 11
101.9999999999998
 21
-103.4057096521226
  0
LINE
  5
15F
100
AcDbEntity
  8
rails-courbes-reverse
  6
ByLayer
 62
  256
370
   -1
100
AcDbLine
 10
99.99999999999984
 20
-103.4108285717859
 11
99.99999999999986
 21
-94.12070968337297
  0
LINE
  5
160
100
AcDbEntity
  8
rails-courbes-reverse
  6
ByLayer
 62
  256
370
   -1
100
AcDbLine
 10
99.99999999999986
 20
-92.62069100307383
 11
99.99999999999984
 21
-68.70041091452426
  0
LINE
  5
161
100
AcDbEntity
  8
rails-courbes-reverse
  6
ByLayer
 62
  256
370
   -1
100
AcDbLine
 10
99.99999999999994
 20
-67.20039439627466
 11
99.99999999999984
 21
-57.58307076322932
  0
LINE
  5
162
100
AcDbEntity
  8
rails-courbes-reverse
  6
ByLayer
 62
  256
370
   -1
100
AcDbLine
 10
-31.51702955094368
 20
-34.04041606934859
 11
-29.63764430937185
 21
-34.72445635599993
  0
LINE
  5
163
100
AcDbEntity
  8
rails-courbes-reverse
  6
ByLayer
 62
  256
370
   -1
100
AcDbLine
 10
-47.18929507128331
 20
-77.09961169817898
 11
-45.31166060334842
 21
-77.78846219586435
  0
LINE
  5
164
100
AcDbEntity
  8
rails-courbes-reverse
  6
ByLayer
 62
  256
370
   -1
100
AcDbLine
 10
-32.92696271675535
 20
-43.76178440568253
 11
-29.63764430937185
 21
-34.72445635599993
  0
LINE
  5
165
100
AcDbEntity
  8
rails-courbes-reverse
  6
ByLayer
 62
  256
370
   -1
100
AcDbLine
 10
-45.31166060334842
 20
-77.78846219586435
 11
-42.13425280962091
 21
-69.05860603019889
  0
ARC
  5
166
100
AcDbEntity
  8
rails-courbes-reverse2
  6
ByLayer
 62
  256
370
   -1
100
AcDbCircle
 10
101.9999999999999
 20
332.7946077345245
 40
426.92
100
AcDbArc
 50
250
 51
270
  0
ARC
  5
167
100
AcDbEntity
  8
rails-courbes-reverse2
  6
ByLayer
 62
  256
370
   -1
100
AcDbCircle
 10
101.9999999999999
 20
332.7946077345245
 40
425.42
100
AcDbArc
 50
250
 51
270
  0
LINE
  5
168
100
AcDbEntity
  8
rails-courbes-reverse2
  6
ByLayer
 62
  256
370
   -1
100
AcDbLine
 10
101.9999999999999
 20
-68.7053922654756
 11
101.9999999999999
 21
-67.20539226547548
  0
ARC
  5
169
100
AcDbEntity
  8
rails-courbes-reverse2
  6
ByLayer
 62
  256
370
   -1
100
AcDbCircle
 10
101.9999999999999
 20
332.7946077345245
 40
400
100
AcDbArc
 50
250
 51
270
  0
ARC
  5
16A
100
AcDbEntity
  8
rails-courbes-reverse2
  6
ByLayer
 62
  256
370
   -1
100
AcDbCircle
 10
101.9999999999999
 20
332.7946077345245
 40
401.5000000000001
100
AcDbArc
 50
250
 51
270
  0
LINE
  5
16B
100
AcDbEntity
  8
rails-courbes-reverse2
  6
ByLayer
 62
  256
370
   -1
100
AcDbLine
 10
-35.32108754525611
 20
-44.4919795110178
 11
-34.80805733026757
 21
-43.08244057983887
  0
LINE
  5
16C
100
AcDbEntity
  8
rails-courbes-reverse2
  6
ByLayer
 62
  256
370
   -1
100
AcDbLine
 10
101.9999999999999
 20
-94.12539226547551
 11
101.9999999999999
 21
-92.62539226547551
  0
LINE
  5
16D
100
AcDbEntity
  8
rails-courbes-reverse2
  6
ByLayer
 62
  256
370
   -1
100
AcDbLine
 10
-44.01523958859458
 20
-68.37896593139556
 11
-43.50220937360608
 21
-66.96942700021668
  0
LINE
  5
16E
100
AcDbEntity
  8
fix-traverses
  6
ByLayer
 62
  256
370
   -1
100
AcDbLine
 10
102.2
 20
34.71
 11
102.2
 21
13.31
  0
LINE
  5
16F
100
AcDbEntity
  8
fix-traverses
  6
ByLayer
 62
  256
370
   -1
100
AcDbLine
 10
102.2
 20
13.31
 11
104
 21
13.31
  0
LINE
  5
170
100
AcDbEntity
  8
fix-traverses
  6
ByLayer
 62
  256
370
   -1
100
AcDbLine
 10
104
 20
13.31
 11
104
 21
34.71
  0
LINE
  5
171
100
AcDbEntity
  8
fix-traverses
  6
ByLayer
 62
  256
370
   -1
100
AcDbLine
 10
104
 20
34.71
 11
102.2
 21
34.71
  0
LINE
  5
172
100
AcDbEntity
  8
fix-traverses
  6
ByLayer
 62
  256
370
   -1
100
AcDbLine
 10
102.2
 20
9.110000000000001
 11
102.2
 21
-10.79
  0
LINE
  5
173
100
AcDbEntity
  8
fix-traverses
  6
ByLayer
 62
  256
370
   -1
100
AcDbLine
 10
102.2
 20
-10.79
 11
104
 21
-10.79
  0
LINE
  5
174
100
AcDbEntity
  8
fix-traverses
  6
ByLayer
 62
  256
370
   -1
100
AcDbLine
 10
104
 20
-10.79
 11
104
 21
9.110000000000001
  0
LINE
  5
175
100
AcDbEntity
  8
fix-traverses
  6
ByLayer
 62
  256
370
   -1
100
AcDbLine
 10
104
 20
9.110000000000001
 11
102.2
 21
9.110000000000001
  0
LINE
  5
176
100
AcDbEntity
  8
fix-traverses
  6
ByLayer
 62
  256
370
   -1
100
AcDbLine
 10
110
 20
34.71000000000001
 11
110
 21
-10.79
  0
LINE
  5
177
100
AcDbEntity
  8
fix-traverses
  6
ByLayer
 62
  256
370
   -1
100
AcDbLine
 10
110
 20
-10.79
 11
112
 21
-10.79
  0
LINE
  5
178
100
AcDbEntity
  8
fix-traverses
  6
ByLayer
 62
  256
370
   -1
100
AcDbLine
 10
112
 20
-10.79
 11
112
 21
10.06
  0
LINE
  5
179
100
AcDbEntity
  8
fix-traverses
  6
ByLayer
 62
  256
370
   -1
100
AcDbLine
 10
112
 20
10.06
 11
114
 21
10.06
  0
LINE
  5
17A
100
AcDbEntity
  8
fix-traverses
  6
ByLayer
 62
  256
370
   -1
100
AcDbLine
 10
114
 20
10.06
 11
114
 21
6.31
  0
LINE
  5
17B
100
AcDbEntity
  8
fix-traverses
  6
ByLayer
 62
  256
370
   -1
100
AcDbLine
 10
114
 20
6.31
 11
116
 21
6.309999999999999
  0
LINE
  5
17C
100
AcDbEntity
  8
fix-traverses
  6
ByLayer
 62
  256
370
   -1
100
AcDbLine
 10
116
 20
6.309999999999999
 11
116
 21
16.11
  0
LINE
  5
17D
100
AcDbEntity
  8
fix-traverses
  6
ByLayer
 62
  256
370
   -1
100
AcDbLine
 10
116
 20
16.11
 11
114
 21
16.11
  0
LINE
  5
17E
100
AcDbEntity
  8
fix-traverses
  6
ByLayer
 62
  256
370
   -1
100
AcDbLine
 10
114
 20
16.11
 11
114
 21
13.86000000000001
  0
LINE
  5
17F
100
AcDbEntity
  8
fix-traverses
  6
ByLayer
 62
  256
370
   -1
100
AcDbLine
 10
114
 20
13.86000000000001
 11
112
 21
13.86
  0
LINE
  5
180
100
AcDbEntity
  8
fix-traverses
  6
ByLayer
 62
  256
370
   -1
100
AcDbLine
 10
112
 20
13.86
 11
112
 21
34.71000000000001
  0
LINE
  5
181
100
AcDbEntity
  8
fix-traverses
  6
ByLayer
 62
  256
370
   -1
100
AcDbLine
 10
112
 20
34.71000000000001
 11
110
 21
34.71000000000001
  0
LINE
  5
182
100
AcDbEntity
  8
fix-rails
  6
ByLayer
 62
  256
370
   -1
100
AcDbLine
 10
102.2
 20
23.92
 11
102.2
 21
25.42
  0
LINE
  5
183
100
AcDbEntity
  8
fix-rails
  6
ByLayer
 62
  256
370
   -1
100
AcDbLine
 10
102.2
 20
25.42
 11
112
 21
25.42
  0
LINE
  5
184
100
AcDbEntity
  8
fix-rails
  6
ByLayer
 62
  256
370
   -1
100
AcDbLine
 10
112
 20
25.42
 11
112
 21
23.92
  0
LINE
  5
185
100
AcDbEntity
  8
fix-rails
  6
ByLayer
 62
  256
370
   -1
100
AcDbLine
 10
112
 20
23.92
 11
102.2
 21
23.92
  0
LINE
  5
186
100
AcDbEntity
  8
fix-rails
  6
ByLayer
 62
  256
370
   -1
100
AcDbLine
 10
102.2
 20
0
 11
112
 21
0
  0
LINE
  5
187
100
AcDbEntity
  8
fix-rails
  6
ByLayer
 62
  256
370
   -1
100
AcDbLine
 10
112
 20
0
 11
112
 21
-1.5
  0
LINE
  5
188
100
AcDbEntity
  8
fix-rails
  6
ByLayer
 62
  256
370
   -1
100
AcDbLine
 10
112
 20
-1.5
 11
102.2
 21
-1.5
  0
LINE
  5
189
100
AcDbEntity
  8
fix-rails
  6
ByLayer
 62
  256
370
   -1
100
AcDbLine
 10
102.2
 20
-1.5
 11
102.2
 21
0
  0
LINE
  5
18A
100
AcDbEntity
  8
fix2-traverses
  6
ByLayer
 62
  256
370
   -1
100
AcDbLine
 10
1.900000000000002
 20
34.71
 11
-0.09999999999999752
 21
34.71
  0
LINE
  5
18B
100
AcDbEntity
  8
fix2-traverses
  6
ByLayer
 62
  256
370
   -1
100
AcDbLine
 10
-0.09999999999999752
 20
34.71
 11
-0.1000000000000041
 21
-10.79
  0
LINE
  5
18C
100
AcDbEntity
  8
fix2-traverses
  6
ByLayer
 62
  256
370
   -1
100
AcDbLine
 10
1.899999999999996
 20
-10.79
 11
-0.1000000000000041
 21
-10.79
  0
LINE
  5
18D
100
AcDbEntity
  8
fix2-traverses
  6
ByLayer
 62
  256
370
   -1
100
AcDbLine
 10
4.099999999999998
 20
6.31
 11
6.099999999999998
 21
6.31
  0
LINE
  5
18E
100
AcDbEntity
  8
fix2-traverses
  6
ByLayer
 62
  256
370
   -1
100
AcDbLine
 10
6.099999999999999
 20
16.11
 11
6.099999999999998
 21
6.31
  0
LINE
  5
18F
100
AcDbEntity
  8
fix2-traverses
  6
ByLayer
 62
  256
370
   -1
100
AcDbLine
 10
4.099999999999999
 20
16.11
 11
6.099999999999999
 21
16.11
  0
LINE
  5
190
100
AcDbEntity
  8
fix2-traverses
  6
ByLayer
 62
  256
370
   -1
100
AcDbLine
 10
-8.099999999999998
 20
34.71
 11
-6.099999999999998
 21
34.71
  0
LINE
  5
191
100
AcDbEntity
  8
fix2-traverses
  6
ByLayer
 62
  256
370
   -1
100
AcDbLine
 10
-6.100000000000004
 20
-10.79
 11
-8.100000000000005
 21
-10.79
  0
LINE
  5
192
100
AcDbEntity
  8
fix2-traverses
  6
ByLayer
 62
  256
370
   -1
100
AcDbLine
 10
4.099999999999998
 20
9.31
 11
4.099999999999998
 21
6.31
  0
LINE
  5
193
100
AcDbEntity
  8
fix2-traverses
  6
ByLayer
 62
  256
370
   -1
100
AcDbLine
 10
1.899999999999999
 20
9.31
 11
1.899999999999996
 21
-10.79
  0
LINE
  5
194
100
AcDbEntity
  8
fix2-traverses
  6
ByLayer
 62
  256
370
   -1
100
AcDbLine
 10
1.899999999999999
 20
9.31
 11
4.099999999999998
 21
9.31
  0
LINE
  5
195
100
AcDbEntity
  8
fix2-traverses
  6
ByLayer
 62
  256
370
   -1
100
AcDbLine
 10
1.900000000000002
 20
34.71
 11
1.899999999999999
 21
13.11
  0
LINE
  5
196
100
AcDbEntity
  8
fix2-traverses
  6
ByLayer
 62
  256
370
   -1
100
AcDbLine
 10
4.099999999999999
 20
16.11
 11
4.099999999999999
 21
13.11
  0
LINE
  5
197
100
AcDbEntity
  8
fix2-traverses
  6
ByLayer
 62
  256
370
   -1
100
AcDbLine
 10
1.899999999999999
 20
13.11
 11
4.099999999999999
 21
13.11
  0
LINE
  5
198
100
AcDbEntity
  8
fix2-traverses
  6
ByLayer
 62
  256
370
   -1
100
AcDbLine
 10
-6.099999999999998
 20
34.71
 11
-6.100000000000002
 21
13.96
  0
LINE
  5
199
100
AcDbEntity
  8
fix2-traverses
  6
ByLayer
 62
  256
370
   -1
100
AcDbLine
 10
-8.099999999999998
 20
34.71
 11
-8.100000000000001
 21
13.96
  0
LINE
  5
19A
100
AcDbEntity
  8
fix2-traverses
  6
ByLayer
 62
  256
370
   -1
100
AcDbLine
 10
-8.100000000000001
 20
9.960000000000001
 11
-8.100000000000005
 21
-10.79
  0
LINE
  5
19B
100
AcDbEntity
  8
fix2-traverses
  6
ByLayer
 62
  256
370
   -1
100
AcDbLine
 10
-6.100000000000001
 20
9.960000000000001
 11
-6.100000000000004
 21
-10.79
  0
LINE
  5
19C
100
AcDbEntity
  8
fix2-traverses
  6
ByLayer
 62
  256
370
   -1
100
AcDbLine
 10
-8.100000000000001
 20
9.960000000000001
 11
-6.100000000000001
 21
9.960000000000001
  0
LINE
  5
19D
100
AcDbEntity
  8
fix2-traverses
  6
ByLayer
 62
  256
370
   -1
100
AcDbLine
 10
-8.100000000000001
 20
13.96
 11
-6.1
 21
13.96
  0
LINE
  5
19E
100
AcDbEntity
  8
fix2-traverses
  6
ByLayer
 62
  256
370
   -1
100
AcDbLine
 10
-6.099999999999998
 20
34.71
 11
-6.1
 21
13.96
  0
LINE
  5
19F
100
AcDbEntity
  8
fix2-rails
  6
ByLayer
 62
  256
370
   -1
100
AcDbLine
 10
1.900000000000001
 20
25.42
 11
-8.1
 21
25.42
  0
LINE
  5
1A0
100
AcDbEntity
  8
fix2-rails
  6
ByLayer
 62
  256
370
   -1
100
AcDbLine
 10
1.900000000000001
 20
23.92
 11
-8.1
 21
23.92
  0
LINE
  5
1A1
100
AcDbEntity
  8
fix2-rails
  6
ByLayer
 62
  256
370
   -1
100
AcDbLine
 10
1.899999999999997
 20
-0
 11
-8.100000000000003
 21
0
  0
LINE
  5
1A2
100
AcDbEntity
  8
fix2-rails
  6
ByLayer
 62
  256
370
   -1
100
AcDbLine
 10
1.899999999999997
 20
-1.5
 11
-8.100000000000003
 21
-1.5
  0
LINE
  5
1A3
100
AcDbEntity
  8
fix2-rails
  6
ByLayer
 62
  256
370
   -1
100
AcDbLine
 10
-8.100000000000003
 20
0
 11
-8.100000000000003
 21
-1.5
  0
LINE
  5
1A4
100
AcDbEntity
  8
fix2-rails
  6
ByLayer
 62
  256
370
   -1
100
AcDbLine
 10
1.899999999999997
 20
-1.5
 11
1.899999999999997
 21
-0
  0
LINE
  5
1A5
100
AcDbEntity
  8
fix2-rails
  6
ByLayer
 62
  256
370
   -1
100
AcDbLine
 10
1.900000000000001
 20
23.92
 11
1.900000000000001
 21
25.42
  0
LINE
  5
1A6
100
AcDbEntity
  8
fix2-rails
  6
ByLayer
 62
  256
370
   -1
100
AcDbLine
 10
-8.1
 20
23.92
 11
-8.1
 21
25.42
  0
LINE
  5
1A7
100
AcDbEntity
  8
rails-courbes-reverse
  6
ByLayer
 62
  256
370
   -1
100
AcDbLine
 10
-38.63492001012958
 20
-53.59665938011341
 11
-31.51702955094368
 21
-34.04041606934859
  0
LINE
  5
1A8
100
AcDbEntity
  8
rails-courbes-reverse
  6
ByLayer
 62
  256
370
   -1
100
AcDbLine
 10
-38.63492001012958
 20
-53.59665938011341
 11
-36.75718382297333
 21
-54.28523040653496
  0
LINE
  5
1A9
100
AcDbEntity
  8
rails-courbes-reverse
  6
ByLayer
 62
  256
370
   -1
100
AcDbLine
 10
-36.75718382297333
 20
-54.28523040653496
 11
-33.43999858131794
 21
-45.17133885893864
  0
LINE
  5
1AA
100
AcDbEntity
  8
rails-courbes-reverse
  6
ByLayer
 62
  256
370
   -1
100
AcDbLine
 10
-41.6212162055938
 20
-67.64904954528077
 11
-38.19368529279698
 21
-58.23198575788882
  0
LINE
  5
1AB
100
AcDbEntity
  8
rails-courbes-reverse
  6
ByLayer
 62
  256
370
   -1
100
AcDbLine
 10
-40.07140461209741
 20
-57.54336838741421
 11
-38.19368529279698
 21
-58.23198575788882
  0
LINE
  5
1AC
100
AcDbEntity
  8
rails-courbes-reverse
  6
ByLayer
 62
  256
370
   -1
100
AcDbLine
 10
-47.18929507128331
 20
-77.09961169817898
 11
-40.07140461209741
 21
-57.54336838741421
  0
LINE
  5
1AD
100
AcDbEntity
  8
rails-courbes-reverse
  6
ByLayer
 62
  256
370
   -1
100
AcDbLine
 10
104.2
 20
-82.56055095879904
 11
102
 21
-82.56055095879904
  0
LINE
  5
1AE
100
AcDbEntity
  8
rails-courbes-reverse
  6
ByLayer
 62
  256
370
   -1
100
AcDbLine
 10
104.2
 20
-78.76055095879904
 11
104.2
 21
-75.76055095879904
  0
LINE
  5
1AF
100
AcDbEntity
  8
rails-courbes-reverse
  6
ByLayer
 62
  256
370
   -1
100
AcDbLine
 10
104.2
 20
-75.76055095879904
 11
106.4
 21
-75.76055095879904
  0
LINE
  5
1B0
100
AcDbEntity
  8
rails-courbes-reverse
  6
ByLayer
 62
  256
370
   -1
100
AcDbLine
 10
106.4
 20
-75.76055095879904
 11
106.4
 21
-85.56055095879904
  0
LINE
  5
1B1
100
AcDbEntity
  8
rails-courbes-reverse
  6
ByLayer
 62
  256
370
   -1
100
AcDbLine
 10
106.4
 20
-85.56055095879904
 11
104.2
 21
-85.56055095879904
  0
LINE
  5
1B2
100
AcDbEntity
  8
rails-courbes-reverse
  6
ByLayer
 62
  256
370
   -1
100
AcDbLine
 10
104.2
 20
-82.56055095879904
 11
104.2
 21
-85.56055095879904
  0
LINE
  5
1B3
100
AcDbEntity
  8
rails-courbes-reverse
  6
ByLayer
 62
  256
370
   -1
100
AcDbLine
 10
101.9999999999998
 20
-103.4057096521226
 11
102
 21
-82.56055095879904
  0
LINE
  5
1B4
100
AcDbEntity
  8
rails-courbes-reverse
  6
ByLayer
 62
  256
370
   -1
100
AcDbLine
 10
102
 20
-78.76055095879904
 11
101.9999999999998
 21
-57.58307076322932
  0
LINE
  5
1B5
100
AcDbEntity
  8
rails-courbes-reverse
  6
ByLayer
 62
  256
370
   -1
100
AcDbLine
 10
104.2
 20
-78.76055095879904
 11
102
 21
-78.76055095879904
  0
LINE
  5
1B6
100
AcDbEntity
  8
aiguillages
  6
ByLayer
 62
  256
370
   -1
100
AcDbLine
 10
102
 20
25.42
 11
2.000000000000002
 21
25.42
  0
LINE
  5
1B7
100
AcDbEntity
  8
aiguillages
  6
ByLayer
 62
  256
370
   -1
100
AcDbLine
 10
102
 20
0
 11
1.999999999999998
 21
0
  0
LINE
  5
1B8
100
AcDbEntity
  8
cotes
  6
ByLayer
 62
  256
370
   -1
100
AcDbLine
 10
102
 20
23.92
 11
2.000000000000002
 21
23.92
  0
LINE
  5
1B9
100
AcDbEntity
  8
cotes
  6
ByLayer
 62
  256
370
   -1
100
AcDbLine
 10
102
 20
-1.5
 11
1.999999999999998
 21
-1.5
  0
LINE
  5
1BA
100
AcDbEntity
  8
cotes
  6
ByLayer
 62
  256
370
   -1
100
AcDbLine
 10
102
 20
23.92
 11
2.000000000000002
 21
23.92
  0
LINE
  5
1BB
100
AcDbEntity
  8
cotes
  6
ByLayer
 62
  256
370
   -1
100
AcDbLine
 10
102
 20
23.92
 11
2.000000000000002
 21
23.92
  0
LINE
  5
1BC
100
AcDbEntity
  8
cotes
  6
ByLayer
 62
  256
370
   -1
100
AcDbLine
 10
102
 20
23.92
 11
2.000000000000002
 21
23.92
  0
LINE
  5
1BD
100
AcDbEntity
  8
aiguillages
  6
ByLayer
 62
  256
370
   -1
100
AcDbLine
 10
102
 20
23.92
 11
2.000000000000002
 21
23.92
  0
LINE
  5
1BE
100
AcDbEntity
  8
aiguillages
  6
ByLayer
 62
  256
370
   -1
100
AcDbLine
 10
102
 20
-1.5
 11
1.999999999999998
 21
-1.5
  0
LINE
  5
1BF
100
AcDbEntity
  8
aiguillages
  6
ByLayer
 62
  256
370
   -1
100
AcDbLine
 10
101.9999999999999
 20
-401.5
 11
1.999999999999924
 21
-401.5
  0
LINE
  5
1C0
100
AcDbEntity
  8
aiguillages
  6
ByLayer
 62
  256
370
   -1
100
AcDbLine
 10
102
 20
-1.5
 11
101.9999999999999
 21
-401.5
  0
LINE
  5
1C1
100
AcDbEntity
  8
aiguillages
  6
ByLayer
 62
  256
370
   -1
100
AcDbLine
 10
-51.07337294603592
 20
-31.94818699548529
 11
101.9999999999999
 21
-401.5
  0
CIRCLE
  5
1C2
100
AcDbEntity
  8
aiguillages
  6
ByLayer
 62
  256
370
   -1
100
AcDbCircle
 10
101.9999999999999
 20
-401.5
 40
400
  0
LINE
  5
1C3
100
AcDbEntity
  8
rails
  6
ByLayer
 62
  256
370
   -1
100
AcDbLine
 10
-1.554312234475219e-15
 20
38.04
 11
-2.664535259100376e-15
 21
36.54
  0
LINE
  5
1C4
100
AcDbEntity
  8
rails
  6
ByLayer
 62
  256
370
   -1
100
AcDbLine
 10
-1.554312234475219e-15
 20
38.04
 11
100
 21
38.04
  0
LINE
  5
1C5
100
AcDbEntity
  8
rails
  6
ByLayer
 62
  256
370
   -1
100
AcDbLine
 10
100
 20
36.54
 11
-2.664535259100376e-15
 21
36.54
  0
LINE
  5
1C6
100
AcDbEntity
  8
rails
  6
ByLayer
 62
  256
370
   -1
100
AcDbLine
 10
100
 20
38.04
 11
100
 21
36.54
  0
LINE
  5
1C7
100
AcDbEntity
  8
rails
  6
ByLayer
 62
  256
370
   -1
100
AcDbLine
 10
2.664535259100376e-15
 20
63.46
 11
1.332267629550188e-15
 21
61.96
  0
LINE
  5
1C8
100
AcDbEntity
  8
rails
  6
ByLayer
 62
  256
370
   -1
100
AcDbLine
 10
2.664535259100376e-15
 20
63.46
 11
100
 21
63.46
  0
LINE
  5
1C9
100
AcDbEntity
  8
rails
  6
ByLayer
 62
  256
370
   -1
100
AcDbLine
 10
100
 20
61.96
 11
1.332267629550188e-15
 21
61.96
  0
LINE
  5
1CA
100
AcDbEntity
  8
rails
  6
ByLayer
 62
  256
370
   -1
100
AcDbLine
 10
100
 20
63.46
 11
100
 21
61.96
  0
LINE
  5
1CB
100
AcDbEntity
  8
traverses
  6
ByLayer
 62
  256
370
   -1
100
AcDbLine
 10
88.00000000000001
 20
27.25
 11
92.00000000000001
 21
27.25
  0
LINE
  5
1CC
100
AcDbEntity
  8
traverses
  6
ByLayer
 62
  256
370
   -1
100
AcDbLine
 10
-3.996802888650564e-15
 20
27.25
 11
1.999999999999996
 21
27.25
  0
LINE
  5
1CD
100
AcDbEntity
  8
traverses
  6
ByLayer
 62
  256
370
   -1
100
AcDbLine
 10
98
 20
27.25
 11
100
 21
27.25
  0
LINE
  5
1CE
100
AcDbEntity
  8
traverses
  6
ByLayer
 62
  256
370
   -1
100
AcDbLine
 10
88.00000000000001
 20
72.75
 11
92.00000000000001
 21
72.75
  0
LINE
  5
1CF
100
AcDbEntity
  8
traverses
  6
ByLayer
 62
  256
370
   -1
100
AcDbLine
 10
2.220446049250313e-15
 20
72.75
 11
2.000000000000002
 21
72.75
  0
LINE
  5
1D0
100
AcDbEntity
  8
traverses
  6
ByLayer
 62
  256
370
   -1
100
AcDbLine
 10
98
 20
72.75
 11
100
 21
72.75
  0
LINE
  5
1D1
100
AcDbEntity
  8
traverses
  6
ByLayer
 62
  256
370
   -1
100
AcDbLine
 10
-1.110223024625157e-15
 20
48
 11
1.999999999999998
 21
48
  0
LINE
  5
1D2
100
AcDbEntity
  8
traverses
  6
ByLayer
 62
  256
370
   -1
100
AcDbLine
 10
-1.110223024625157e-15
 20
52
 11
2
 21
52
  0
LINE
  5
1D3
100
AcDbEntity
  8
traverses
  6
ByLayer
 62
  256
370
   -1
100
AcDbLine
 10
2.220446049250313e-15
 20
72.75
 11
-1.110223024625157e-15
 21
52
  0
LINE
  5
1D4
100
AcDbEntity
  8
traverses
  6
ByLayer
 62
  256
370
   -1
100
AcDbLine
 10
-1.110223024625157e-15
 20
48
 11
-3.996802888650564e-15
 21
27.25
  0
LINE
  5
1D5
100
AcDbEntity
  8
traverses
  6
ByLayer
 62
  256
370
   -1
100
AcDbLine
 10
102.2
 20
54.9
 11
104.4
 21
54.9
  0
LINE
  5
1D6
100
AcDbEntity
  8
traverses
  6
ByLayer
 62
  256
370
   -1
100
AcDbLine
 10
102.2
 20
54.9
 11
102.2
 21
51.9
  0
LINE
  5
1D7
100
AcDbEntity
  8
traverses
  6
ByLayer
 62
  256
370
   -1
100
AcDbLine
 10
104.4
 20
54.9
 11
104.4
 21
45.09999999999999
  0
LINE
  5
1D8
100
AcDbEntity
  8
traverses
  6
ByLayer
 62
  256
370
   -1
100
AcDbLine
 10
102.2
 20
45.09999999999999
 11
104.4
 21
45.09999999999999
  0
LINE
  5
1D9
100
AcDbEntity
  8
traverses
  6
ByLayer
 62
  256
370
   -1
100
AcDbLine
 10
102.2
 20
48.1
 11
102.2
 21
45.09999999999999
  0
LINE
  5
1DA
100
AcDbEntity
  8
traverses
  6
ByLayer
 62
  256
370
   -1
100
AcDbLine
 10
100
 20
72.75
 11
100
 21
51.9
  0
LINE
  5
1DB
100
AcDbEntity
  8
traverses
  6
ByLayer
 62
  256
370
   -1
100
AcDbLine
 10
100
 20
51.9
 11
102.2
 21
51.9
  0
LINE
  5
1DC
100
AcDbEntity
  8
traverses
  6
ByLayer
 62
  256
370
   -1
100
AcDbLine
 10
100
 20
48.1
 11
100
 21
27.25
  0
LINE
  5
1DD
100
AcDbEntity
  8
traverses
  6
ByLayer
 62
  256
370
   -1
100
AcDbLine
 10
100
 20
48.1
 11
102.2
 21
48.1
  0
ARC
  5
1DE
100
AcDbEntity
  8
courbes-rails
  6
ByLayer
 62
  256
370
   -1
100
AcDbCircle
 10
100
 20
-200
 40
238.04
100
AcDbArc
 50
67.5
 51
90
  0
ARC
  5
1DF
100
AcDbEntity
  8
courbes-rails
  6
ByLayer
 62
  256
370
   -1
100
AcDbCircle
 10
100
 20
-200
 40
263.46
100
AcDbArc
 50
67.5
 51
90
  0
ARC
  5
1E0
100
AcDbEntity
  8
courbes-rails
  6
ByLayer
 62
  256
370
   -1
100
AcDbCircle
 10
100
 20
-200
 40
261.96
100
AcDbArc
 50
67.5
 51
90
  0
ARC
  5
1E1
100
AcDbEntity
  8
courbes-rails
  6
ByLayer
 62
  256
370
   -1
100
AcDbCircle
 10
100
 20
-200
 40
236.54
100
AcDbArc
 50
67.5
 51
90
  0
LINE
  5
1E2
100
AcDbEntity
  8
traverses
  6
ByLayer
 62
  256
370
   -1
100
AcDbLine
 10
100
 20
48
 11
102
 21
48
  0
LINE
  5
1E3
100
AcDbEntity
  8
traverses
  6
ByLayer
 62
  256
370
   -1
100
AcDbLine
 10
100
 20
72.75
 11
100
 21
52
  0
LINE
  5
1E4
100
AcDbEntity
  8
traverses
  6
ByLayer
 62
  256
370
   -1
100
AcDbLine
 10
100
 20
48
 11
100
 21
27.25
  0
LINE
  5
1E5
100
AcDbEntity
  8
courbes-traverses
  6
ByLayer
 62
  256
370
   -1
100
AcDbLine
 10
130.0721882427154
 20
71.09449642937182
 11
134.0444620705351
 21
70.62434683954052
  0
LINE
  5
1E6
100
AcDbEntity
  8
courbes-traverses
  6
ByLayer
 62
  256
370
   -1
100
AcDbLine
 10
134.0444620705351
 20
70.62434683954052
 11
128.6965104862035
 21
25.43973204809132
  0
LINE
  5
1E7
100
AcDbEntity
  8
courbes-traverses
  6
ByLayer
 62
  256
370
   -1
100
AcDbLine
 10
128.6965104862035
 20
25.43973204809132
 11
124.7242366583837
 21
25.90988163792267
  0
LINE
  5
1E8
100
AcDbEntity
  8
courbes-traverses
  6
ByLayer
 62
  256
370
   -1
100
AcDbLine
 10
124.7242366583837
 20
25.90988163792267
 11
130.0721882427154
 21
71.09449642937182
  0
LINE
  5
1E9
100
AcDbEntity
  8
courbes-traverses
  6
ByLayer
 62
  256
370
   -1
100
AcDbLine
 10
140.6921236585327
 20
69.70486382740432
 11
144.6428770209133
 21
69.07912596724339
  0
LINE
  5
1EA
100
AcDbEntity
  8
courbes-traverses
  6
ByLayer
 62
  256
370
   -1
100
AcDbLine
 10
144.6428770209133
 20
69.07912596724339
 11
137.5251088615827
 21
24.1393064701646
  0
LINE
  5
1EB
100
AcDbEntity
  8
courbes-traverses
  6
ByLayer
 62
  256
370
   -1
100
AcDbLine
 10
137.5251088615827
 20
24.1393064701646
 11
133.5743554992022
 21
24.76504433032554
  0
LINE
  5
1EC
100
AcDbEntity
  8
courbes-traverses
  6
ByLayer
 62
  256
370
   -1
100
AcDbLine
 10
133.5743554992022
 20
24.76504433032554
 11
140.6921236585327
 21
69.70486382740432
  0
LINE
  5
1ED
100
AcDbEntity
  8
courbes-traverses
  6
ByLayer
 62
  256
370
   -1
100
AcDbLine
 10
151.2493147690925
 20
67.89936587401337
 11
155.1724558907054
 21
67.1190045859488
  0
LINE
  5
1EE
100
AcDbEntity
  8
courbes-traverses
  6
ByLayer
 62
  256
370
   -1
100
AcDbLine
 10
155.1724558907054
 20
67.1190045859488
 11
146.2958462389716
 21
22.49327432760185
  0
LINE
  5
1EF
100
AcDbEntity
  8
courbes-traverses
  6
ByLayer
 62
  256
370
   -1
100
AcDbLine
 10
146.2958462389716
 20
22.49327432760185
 11
142.3727051173587
 21
23.27363561566636
  0
LINE
  5
1F0
100
AcDbEntity
  8
courbes-traverses
  6
ByLayer
 62
  256
370
   -1
100
AcDbLine
 10
142.3727051173587
 20
23.27363561566636
 11
151.2493147690925
 21
67.89936587401337
  0
LINE
  5
1F1
100
AcDbEntity
  8
courbes-traverses
  6
ByLayer
 62
  256
370
   -1
100
AcDbLine
 10
161.7274831509029
 20
65.6807865161781
 11
165.6169628324936
 21
64.74700506075447
  0
LINE
  5
1F2
100
AcDbEntity
  8
courbes-traverses
  6
ByLayer
 62
  256
370
   -1
100
AcDbLine
 10
165.6169628324936
 20
64.74700506075447
 11
154.9951987770498
 21
20.50417368266019
  0
LINE
  5
1F3
100
AcDbEntity
  8
courbes-traverses
  6
ByLayer
 62
  256
370
   -1
100
AcDbLine
 10
154.9951987770498
 20
20.50417368266019
 11
151.1057190954592
 21
21.43795513808382
  0
LINE
  5
1F4
100
AcDbEntity
  8
courbes-traverses
  6
ByLayer
 62
  256
370
   -1
100
AcDbLine
 10
151.1057190954592
 20
21.43795513808382
 11
161.7274831509029
 21
65.6807865161781
  0
LINE
  5
1F5
100
AcDbEntity
  8
courbes-traverses
  6
ByLayer
 62
  256
370
   -1
100
AcDbLine
 10
172.1104722277917
 20
63.05254664246246
 11
175.9602931736063
 21
61.96678484300213
  0
LINE
  5
1F6
100
AcDbEntity
  8
courbes-traverses
  6
ByLayer
 62
  256
370
   -1
100
AcDbLine
 10
175.9602931736063
 20
61.96678484300213
 11
163.6097527047454
 21
18.17507158436121
  0
LINE
  5
1F7
100
AcDbEntity
  8
courbes-traverses
  6
ByLayer
 62
  256
370
   -1
100
AcDbLine
 10
163.6097527047454
 20
18.17507158436121
 11
159.7599317589308
 21
19.26083338382148
  0
LINE
  5
1F8
100
AcDbEntity
  8
courbes-traverses
  6
ByLayer
 62
  256
370
   -1
100
AcDbLine
 10
159.7599317589308
 20
19.26083338382148
 11
172.1104722277917
 21
63.05254664246246
  0
LINE
  5
1F9
100
AcDbEntity
  8
courbes-traverses
  6
ByLayer
 62
  256
370
   -1
100
AcDbLine
 10
182.3822721831766
 20
60.01869880825302
 11
186.1864982483572
 21
58.78263083075319
  0
LINE
  5
1FA
100
AcDbEntity
  8
courbes-traverses
  6
ByLayer
 62
  256
370
   -1
100
AcDbLine
 10
186.1864982483572
 20
58.78263083075319
 11
172.1262250042971
 21
15.50955933932374
  0
LINE
  5
1FB
100
AcDbEntity
  8
courbes-traverses
  6
ByLayer
 62
  256
370
   -1
100
AcDbLine
 10
172.1262250042971
 20
15.50955933932374
 11
168.3219989391165
 21
16.74562731682352
  0
LINE
  5
1FC
100
AcDbEntity
  8
courbes-traverses
  6
ByLayer
 62
  256
370
   -1
100
AcDbLine
 10
168.3219989391165
 20
16.74562731682352
 11
182.3822721831766
 21
60.01869880825302
  0
LINE
  5
1FD
100
AcDbEntity
  8
courbes-traverses
  6
ByLayer
 62
  256
370
   -1
100
AcDbLine
 10
192.5270446460412
 20
56.58392098701256
 11
196.2798099897312
 21
55.19945275870256
  0
LINE
  5
1FE
100
AcDbEntity
  8
courbes-traverses
  6
ByLayer
 62
  256
370
   -1
100
AcDbLine
 10
196.2798099897312
 20
55.19945275870256
 11
180.5314838927052
 21
12.51174697422954
  0
LINE
  5
1FF
100
AcDbEntity
  8
courbes-traverses
  6
ByLayer
 62
  256
370
   -1
100
AcDbLine
 10
180.5314838927052
 20
12.51174697422954
 11
176.7787185490153
 21
13.89621520253951
  0
LINE
  5
200
100
AcDbEntity
  8
courbes-traverses
  6
ByLayer
 62
  256
370
   -1
100
AcDbLine
 10
176.7787185490153
 20
13.89621520253951
 11
192.5270446460412
 21
56.58392098701256
  0
LINE
  5
201
100
AcDbEntity
  8
courbes-traverses
  6
ByLayer
 62
  256
370
   -1
100
AcDbLine
 10
185.1170509399441
 20
10.71699062792007
 11
186.9648100049666
 21
9.9516237631899
  0
LINE
  5
202
100
AcDbEntity
  8
courbes-traverses
  6
ByLayer
 62
  256
370
   -1
100
AcDbLine
 10
202.5291471125557
 20
52.75350935718362
 11
204.3769061775782
 21
51.98814249245345
  0
LINE
  5
203
100
AcDbEntity
  8
courbes-traverses
  6
ByLayer
 62
  256
370
   -1
100
AcDbLine
 10
199.5785418813862
 20
34.65498928592382
 11
201.6110768529111
 21
33.8130857347206
  0
LINE
  5
204
100
AcDbEntity
  8
courbes-traverses
  6
ByLayer
 62
  256
370
   -1
100
AcDbLine
 10
199.5785418813862
 20
34.65498928592382
 11
198.430491584291
 21
31.88335068838995
  0
LINE
  5
205
100
AcDbEntity
  8
courbes-traverses
  6
ByLayer
 62
  256
370
   -1
100
AcDbLine
 10
201.6110768529111
 20
33.8130857347206
 11
197.8607792157332
 21
24.75906631610997
  0
LINE
  5
206
100
AcDbEntity
  8
courbes-traverses
  6
ByLayer
 62
  256
370
   -1
100
AcDbLine
 10
195.8282442442083
 20
25.60096986731318
 11
197.8607792157332
 21
24.75906631610997
  0
LINE
  5
207
100
AcDbEntity
  8
courbes-traverses
  6
ByLayer
 62
  256
370
   -1
100
AcDbLine
 10
196.9762945413036
 20
28.37260846484705
 11
195.8282442442083
 21
25.60096986731318
  0
LINE
  5
208
100
AcDbEntity
  8
courbes-traverses
  6
ByLayer
 62
  256
370
   -1
100
AcDbLine
 10
204.3769061775782
 20
51.98814249245345
 11
196.3979566127661
 21
32.72525423959314
  0
LINE
  5
209
100
AcDbEntity
  8
courbes-traverses
  6
ByLayer
 62
  256
370
   -1
100
AcDbLine
 10
196.3979566127661
 20
32.72525423959314
 11
198.430491584291
 21
31.88335068838995
  0
LINE
  5
20A
100
AcDbEntity
  8
courbes-traverses
  6
ByLayer
 62
  256
370
   -1
100
AcDbLine
 10
194.9437595697788
 20
29.21451201605024
 11
196.9762945413036
 21
28.37260846484705
  0
LINE
  5
20B
100
AcDbEntity
  8
courbes-traverses
  6
ByLayer
 62
  256
370
   -1
100
AcDbLine
 10
202.5291471125557
 20
52.75350935718362
 11
185.1170509399441
 21
10.71699062792007
  0
LINE
  5
20C
100
AcDbEntity
  8
courbes-traverses
  6
ByLayer
 62
  256
370
   -1
100
AcDbLine
 10
102
 20
52
 11
100
 21
52
  0
LINE
  5
20D
100
AcDbEntity
  8
courbes-traverses
  6
ByLayer
 62
  256
370
   -1
100
AcDbLine
 10
102
 20
48
 11
100
 21
48
  0
LINE
  5
20E
100
AcDbEntity
  8
courbes-traverses
  6
ByLayer
 62
  256
370
   -1
100
AcDbLine
 10
100
 20
72.9604426089677
 11
100
 21
52
  0
LINE
  5
20F
100
AcDbEntity
  8
courbes-traverses
  6
ByLayer
 62
  256
370
   -1
100
AcDbLine
 10
102
 20
72.9604426089677
 11
102
 21
52
  0
LINE
  5
210
100
AcDbEntity
  8
courbes-traverses
  6
ByLayer
 62
  256
370
   -1
100
AcDbLine
 10
100
 20
72.9604426089677
 11
102
 21
72.9604426089677
  0
LINE
  5
211
100
AcDbEntity
  8
courbes-traverses
  6
ByLayer
 62
  256
370
   -1
100
AcDbLine
 10
100
 20
27.42533669253131
 11
102
 21
27.34675647851598
  0
LINE
  5
212
100
AcDbEntity
  8
courbes-traverses
  6
ByLayer
 62
  256
370
   -1
100
AcDbLine
 10
102
 20
48
 11
102
 21
27.34675647851598
  0
LINE
  5
213
100
AcDbEntity
  8
courbes-traverses
  6
ByLayer
 62
  256
370
   -1
100
AcDbLine
 10
194.9437595697788
 20
29.21451201605024
 11
186.9648100049666
 21
9.9516237631899
  0
LINE
  5
214
100
AcDbEntity
  8
courbes-traverses
  6
ByLayer
 62
  256
370
   -1
100
AcDbLine
 10
100
 20
48
 11
100
 21
27.42533669253131
  0
LINE
  5
215
100
AcDbEntity
  8
courbes-rails
  6
ByLayer
 62
  256
370
   -1
100
AcDbLine
 10
100
 20
61.95999999999998
 11
100
 21
63.45999999999998
  0
LINE
  5
216
100
AcDbEntity
  8
courbes-rails
  6
ByLayer
 62
  256
370
   -1
100
AcDbLine
 10
100
 20
38.03999999999999
 11
100
 21
36.53999999999999
  0
LINE
  5
217
100
AcDbEntity
  8
courbes-rails
  6
ByLayer
 62
  256
370
   -1
100
AcDbLine
 10
200.8217770909066
 20
43.4053016354236
 11
200.2477519423589
 21
42.01948233665667
  0
LINE
  5
218
100
AcDbEntity
  8
courbes-rails
  6
ByLayer
 62
  256
370
   -1
100
AcDbLine
 10
191.093964240186
 20
19.92028391898668
 11
190.5199390916383
 21
18.53446462021975
  0
LINE
  5
219
100
AcDbEntity
  8
grille2
  6
ByLayer
 62
  256
370
   -1
100
AcDbLine
 10
-1000
 20
400
 11
-1000
 21
300
  0
LINE
  5
21A
100
AcDbEntity
  8
grille2
  6
ByLayer
 62
  256
370
   -1
100
AcDbLine
 10
-1000
 20
300
 11
-900
 21
300
  0
LINE
  5
21B
100
AcDbEntity
  8
grille2
  6
ByLayer
 62
  256
370
   -1
100
AcDbLine
 10
-900
 20
300
 11
-900
 21
400
  0
LINE
  5
21C
100
AcDbEntity
  8
grille2
  6
ByLayer
 62
  256
370
   -1
100
AcDbLine
 10
-1000
 20
300
 11
-1000
 21
200
  0
LINE
  5
21D
100
AcDbEntity
  8
grille2
  6
ByLayer
 62
  256
370
   -1
100
AcDbLine
 10
-1000
 20
200
 11
-900
 21
200
  0
LINE
  5
21E
100
AcDbEntity
  8
grille2
  6
ByLayer
 62
  256
370
   -1
100
AcDbLine
 10
-900
 20
200
 11
-900
 21
300
  0
LINE
  5
21F
100
AcDbEntity
  8
grille2
  6
ByLayer
 62
  256
370
   -1
100
AcDbLine
 10
-1000
 20
200
 11
-1000
 21
100
  0
LINE
  5
220
100
AcDbEntity
  8
grille2
  6
ByLayer
 62
  256
370
   -1
100
AcDbLine
 10
-1000
 20
100
 11
-900
 21
100
  0
LINE
  5
221
100
AcDbEntity
  8
grille2
  6
ByLayer
 62
  256
370
   -1
100
AcDbLine
 10
-900
 20
100
 11
-900
 21
200
  0
LINE
  5
222
100
AcDbEntity
  8
grille2
  6
ByLayer
 62
  256
370
   -1
100
AcDbLine
 10
-1000
 20
100
 11
-1000
 21
0
  0
LINE
  5
223
100
AcDbEntity
  8
grille2
  6
ByLayer
 62
  256
370
   -1
100
AcDbLine
 10
-1000
 20
0
 11
-900
 21
0
  0
LINE
  5
224
100
AcDbEntity
  8
grille2
  6
ByLayer
 62
  256
370
   -1
100
AcDbLine
 10
-900
 20
0
 11
-900
 21
100
  0
LINE
  5
225
100
AcDbEntity
  8
grille2
  6
ByLayer
 62
  256
370
   -1
100
AcDbLine
 10
-1000
 20
0
 11
-1000
 21
-100
  0
LINE
  5
226
100
AcDbEntity
  8
grille2
  6
ByLayer
 62
  256
370
   -1
100
AcDbLine
 10
-1000
 20
-100
 11
-900
 21
-100
  0
LINE
  5
227
100
AcDbEntity
  8
grille2
  6
ByLayer
 62
  256
370
   -1
100
AcDbLine
 10
-900
 20
-100
 11
-900
 21
0
  0
LINE
  5
228
100
AcDbEntity
  8
grille2
  6
ByLayer
 62
  256
370
   -1
100
AcDbLine
 10
-1000
 20
-100
 11
-1000
 21
-200
  0
LINE
  5
229
100
AcDbEntity
  8
grille2
  6
ByLayer
 62
  256
370
   -1
100
AcDbLine
 10
-1000
 20
-200
 11
-900
 21
-200
  0
LINE
  5
22A
100
AcDbEntity
  8
grille2
  6
ByLayer
 62
  256
370
   -1
100
AcDbLine
 10
-900
 20
-200
 11
-900
 21
-100
  0
LINE
  5
22B
100
AcDbEntity
  8
grille2
  6
ByLayer
 62
  256
370
   -1
100
AcDbLine
 10
-1000
 20
-200
 11
-1000
 21
-300
  0
LINE
  5
22C
100
AcDbEntity
  8
grille2
  6
ByLayer
 62
  256
370
   -1
100
AcDbLine
 10
-1000
 20
-300
 11
-900
 21
-300
  0
LINE
  5
22D
100
AcDbEntity
  8
grille2
  6
ByLayer
 62
  256
370
   -1
100
AcDbLine
 10
-900
 20
-300
 11
-900
 21
-200
  0
LINE
  5
22E
100
AcDbEntity
  8
grille2
  6
ByLayer
 62
  256
370
   -1
100
AcDbLine
 10
-1000
 20
-300
 11
-1000
 21
-400
  0
LINE
  5
22F
100
AcDbEntity
  8
grille2
  6
ByLayer
 62
  256
370
   -1
100
AcDbLine
 10
-1000
 20
-400
 11
-900
 21
-400
  0
LINE
  5
230
100
AcDbEntity
  8
grille2
  6
ByLayer
 62
  256
370
   -1
100
AcDbLine
 10
-900
 20
-400
 11
-900
 21
-300
  0
LINE
  5
231
100
AcDbEntity
  8
grille2
  6
ByLayer
 62
  256
370
   -1
100
AcDbLine
 10
-1000
 20
-400
 11
-1000
 21
-500
  0
LINE
  5
232
100
AcDbEntity
  8
grille2
  6
ByLayer
 62
  256
370
   -1
100
AcDbLine
 10
-1000
 20
-500
 11
-900
 21
-500
  0
LINE
  5
233
100
AcDbEntity
  8
grille2
  6
ByLayer
 62
  256
370
   -1
100
AcDbLine
 10
-900
 20
-500
 11
-900
 21
-400
  0
LINE
  5
234
100
AcDbEntity
  8
grille2
  6
ByLayer
 62
  256
370
   -1
100
AcDbLine
 10
-1000
 20
-500
 11
-1000
 21
-600
  0
LINE
  5
235
100
AcDbEntity
  8
grille2
  6
ByLayer
 62
  256
370
   -1
100
AcDbLine
 10
-1000
 20
-600
 11
-900
 21
-600
  0
LINE
  5
236
100
AcDbEntity
  8
grille2
  6
ByLayer
 62
  256
370
   -1
100
AcDbLine
 10
-900
 20
-600
 11
-900
 21
-500
  0
LINE
  5
237
100
AcDbEntity
  8
grille2
  6
ByLayer
 62
  256
370
   -1
100
AcDbLine
 10
-1000
 20
-600
 11
-1000
 21
-700
  0
LINE
  5
238
100
AcDbEntity
  8
grille2
  6
ByLayer
 62
  256
370
   -1
100
AcDbLine
 10
-1000
 20
-700
 11
-900
 21
-700
  0
LINE
  5
239
100
AcDbEntity
  8
grille2
  6
ByLayer
 62
  256
370
   -1
100
AcDbLine
 10
-900
 20
-700
 11
-900
 21
-600
  0
LINE
  5
23A
100
AcDbEntity
  8
grille2
  6
ByLayer
 62
  256
370
   -1
100
AcDbLine
 10
-1000
 20
-700
 11
-1000
 21
-800
  0
LINE
  5
23B
100
AcDbEntity
  8
grille2
  6
ByLayer
 62
  256
370
   -1
100
AcDbLine
 10
-1000
 20
-800
 11
-900
 21
-800
  0
LINE
  5
23C
100
AcDbEntity
  8
grille2
  6
ByLayer
 62
  256
370
   -1
100
AcDbLine
 10
-900
 20
-800
 11
-900
 21
-700
  0
LINE
  5
23D
100
AcDbEntity
  8
grille2
  6
ByLayer
 62
  256
370
   -1
100
AcDbLine
 10
-1000
 20
-800
 11
-1000
 21
-900
  0
LINE
  5
23E
100
AcDbEntity
  8
grille2
  6
ByLayer
 62
  256
370
   -1
100
AcDbLine
 10
-1000
 20
-900
 11
-900
 21
-900
  0
LINE
  5
23F
100
AcDbEntity
  8
grille2
  6
ByLayer
 62
  256
370
   -1
100
AcDbLine
 10
-900
 20
-900
 11
-900
 21
-800
  0
LINE
  5
240
100
AcDbEntity
  8
grille2
  6
ByLayer
 62
  256
370
   -1
100
AcDbLine
 10
-1000
 20
-900
 11
-1000
 21
-1000
  0
LINE
  5
241
100
AcDbEntity
  8
grille2
  6
ByLayer
 62
  256
370
   -1
100
AcDbLine
 10
-1000
 20
-1000
 11
-900
 21
-1000
  0
LINE
  5
242
100
AcDbEntity
  8
grille2
  6
ByLayer
 62
  256
370
   -1
100
AcDbLine
 10
-900
 20
-1000
 11
-900
 21
-900
  0
LINE
  5
243
100
AcDbEntity
  8
grille2
  6
ByLayer
 62
  256
370
   -1
100
AcDbLine
 10
-1000
 20
-1000
 11
-1000
 21
-1100
  0
LINE
  5
244
100
AcDbEntity
  8
grille2
  6
ByLayer
 62
  256
370
   -1
100
AcDbLine
 10
-1000
 20
-1100
 11
-900
 21
-1100
  0
LINE
  5
245
100
AcDbEntity
  8
grille2
  6
ByLayer
 62
  256
370
   -1
100
AcDbLine
 10
-900
 20
-1100
 11
-900
 21
-1000
  0
LINE
  5
246
100
AcDbEntity
  8
grille2
  6
ByLayer
 62
  256
370
   -1
100
AcDbLine
 10
-1000
 20
-1100
 11
-1000
 21
-1200
  0
LINE
  5
247
100
AcDbEntity
  8
grille2
  6
ByLayer
 62
  256
370
   -1
100
AcDbLine
 10
-1000
 20
-1200
 11
-900
 21
-1200
  0
LINE
  5
248
100
AcDbEntity
  8
grille2
  6
ByLayer
 62
  256
370
   -1
100
AcDbLine
 10
-900
 20
-1200
 11
-900
 21
-1100
  0
LINE
  5
249
100
AcDbEntity
  8
grille2
  6
ByLayer
 62
  256
370
   -1
100
AcDbLine
 10
-1000
 20
-1200
 11
-1000
 21
-1300
  0
LINE
  5
24A
100
AcDbEntity
  8
grille2
  6
ByLayer
 62
  256
370
   -1
100
AcDbLine
 10
-1000
 20
-1300
 11
-900
 21
-1300
  0
LINE
  5
24B
100
AcDbEntity
  8
grille2
  6
ByLayer
 62
  256
370
   -1
100
AcDbLine
 10
-900
 20
-1300
 11
-900
 21
-1200
  0
LINE
  5
24C
100
AcDbEntity
  8
grille2
  6
ByLayer
 62
  256
370
   -1
100
AcDbLine
 10
-1000
 20
-1300
 11
-1000
 21
-1400
  0
LINE
  5
24D
100
AcDbEntity
  8
grille2
  6
ByLayer
 62
  256
370
   -1
100
AcDbLine
 10
-1000
 20
-1400
 11
-900
 21
-1400
  0
LINE
  5
24E
100
AcDbEntity
  8
grille2
  6
ByLayer
 62
  256
370
   -1
100
AcDbLine
 10
-900
 20
-1400
 11
-900
 21
-1300
  0
LINE
  5
24F
100
AcDbEntity
  8
grille2
  6
ByLayer
 62
  256
370
   -1
100
AcDbLine
 10
-1000
 20
-1400
 11
-1000
 21
-1500
  0
LINE
  5
250
100
AcDbEntity
  8
grille2
  6
ByLayer
 62
  256
370
   -1
100
AcDbLine
 10
-1000
 20
-1500
 11
-900
 21
-1500
  0
LINE
  5
251
100
AcDbEntity
  8
grille2
  6
ByLayer
 62
  256
370
   -1
100
AcDbLine
 10
-900
 20
-1500
 11
-900
 21
-1400
  0
LINE
  5
252
100
AcDbEntity
  8
grille2
  6
ByLayer
 62
  256
370
   -1
100
AcDbLine
 10
-1000
 20
-1500
 11
-1000
 21
-1600
  0
LINE
  5
253
100
AcDbEntity
  8
grille2
  6
ByLayer
 62
  256
370
   -1
100
AcDbLine
 10
-1000
 20
-1600
 11
-900
 21
-1600
  0
LINE
  5
254
100
AcDbEntity
  8
grille2
  6
ByLayer
 62
  256
370
   -1
100
AcDbLine
 10
-900
 20
-1600
 11
-900
 21
-1500
  0
LINE
  5
255
100
AcDbEntity
  8
grille2
  6
ByLayer
 62
  256
370
   -1
100
AcDbLine
 10
-1000
 20
-1600
 11
-1000
 21
-1700
  0
LINE
  5
256
100
AcDbEntity
  8
grille2
  6
ByLayer
 62
  256
370
   -1
100
AcDbLine
 10
-1000
 20
-1700
 11
-900
 21
-1700
  0
LINE
  5
257
100
AcDbEntity
  8
grille2
  6
ByLayer
 62
  256
370
   -1
100
AcDbLine
 10
-900
 20
-1700
 11
-900
 21
-1600
  0
LINE
  5
258
100
AcDbEntity
  8
grille2
  6
ByLayer
 62
  256
370
   -1
100
AcDbLine
 10
-1000
 20
400
 11
-900
 21
400
  0
LINE
  5
259
100
AcDbEntity
  8
grille2
  6
ByLayer
 62
  256
370
   -1
100
AcDbLine
 10
-900
 20
300
 11
-800
 21
300
  0
LINE
  5
25A
100
AcDbEntity
  8
grille2
  6
ByLayer
 62
  256
370
   -1
100
AcDbLine
 10
-800
 20
300
 11
-800
 21
400
  0
LINE
  5
25B
100
AcDbEntity
  8
grille2
  6
ByLayer
 62
  256
370
   -1
100
AcDbLine
 10
-900
 20
200
 11
-800
 21
200
  0
LINE
  5
25C
100
AcDbEntity
  8
grille2
  6
ByLayer
 62
  256
370
   -1
100
AcDbLine
 10
-800
 20
200
 11
-800
 21
300
  0
LINE
  5
25D
100
AcDbEntity
  8
grille2
  6
ByLayer
 62
  256
370
   -1
100
AcDbLine
 10
-900
 20
100
 11
-800
 21
100
  0
LINE
  5
25E
100
AcDbEntity
  8
grille2
  6
ByLayer
 62
  256
370
   -1
100
AcDbLine
 10
-800
 20
100
 11
-800
 21
200
  0
LINE
  5
25F
100
AcDbEntity
  8
grille2
  6
ByLayer
 62
  256
370
   -1
100
AcDbLine
 10
-900
 20
0
 11
-800
 21
0
  0
LINE
  5
260
100
AcDbEntity
  8
grille2
  6
ByLayer
 62
  256
370
   -1
100
AcDbLine
 10
-800
 20
0
 11
-800
 21
100
  0
LINE
  5
261
100
AcDbEntity
  8
grille2
  6
ByLayer
 62
  256
370
   -1
100
AcDbLine
 10
-900
 20
-100
 11
-800
 21
-100
  0
LINE
  5
262
100
AcDbEntity
  8
grille2
  6
ByLayer
 62
  256
370
   -1
100
AcDbLine
 10
-800
 20
-100
 11
-800
 21
0
  0
LINE
  5
263
100
AcDbEntity
  8
grille2
  6
ByLayer
 62
  256
370
   -1
100
AcDbLine
 10
-900
 20
-200
 11
-800
 21
-200
  0
LINE
  5
264
100
AcDbEntity
  8
grille2
  6
ByLayer
 62
  256
370
   -1
100
AcDbLine
 10
-800
 20
-200
 11
-800
 21
-100
  0
LINE
  5
265
100
AcDbEntity
  8
grille2
  6
ByLayer
 62
  256
370
   -1
100
AcDbLine
 10
-900
 20
-300
 11
-800
 21
-300
  0
LINE
  5
266
100
AcDbEntity
  8
grille2
  6
ByLayer
 62
  256
370
   -1
100
AcDbLine
 10
-800
 20
-300
 11
-800
 21
-200
  0
LINE
  5
267
100
AcDbEntity
  8
grille2
  6
ByLayer
 62
  256
370
   -1
100
AcDbLine
 10
-900
 20
-400
 11
-800
 21
-400
  0
LINE
  5
268
100
AcDbEntity
  8
grille2
  6
ByLayer
 62
  256
370
   -1
100
AcDbLine
 10
-800
 20
-400
 11
-800
 21
-300
  0
LINE
  5
269
100
AcDbEntity
  8
grille2
  6
ByLayer
 62
  256
370
   -1
100
AcDbLine
 10
-900
 20
-500
 11
-800
 21
-500
  0
LINE
  5
26A
100
AcDbEntity
  8
grille2
  6
ByLayer
 62
  256
370
   -1
100
AcDbLine
 10
-800
 20
-500
 11
-800
 21
-400
  0
LINE
  5
26B
100
AcDbEntity
  8
grille2
  6
ByLayer
 62
  256
370
   -1
100
AcDbLine
 10
-900
 20
-600
 11
-800
 21
-600
  0
LINE
  5
26C
100
AcDbEntity
  8
grille2
  6
ByLayer
 62
  256
370
   -1
100
AcDbLine
 10
-800
 20
-600
 11
-800
 21
-500
  0
LINE
  5
26D
100
AcDbEntity
  8
grille2
  6
ByLayer
 62
  256
370
   -1
100
AcDbLine
 10
-900
 20
-700
 11
-800
 21
-700
  0
LINE
  5
26E
100
AcDbEntity
  8
grille2
  6
ByLayer
 62
  256
370
   -1
100
AcDbLine
 10
-800
 20
-700
 11
-800
 21
-600
  0
LINE
  5
26F
100
AcDbEntity
  8
grille2
  6
ByLayer
 62
  256
370
   -1
100
AcDbLine
 10
-900
 20
-800
 11
-800
 21
-800
  0
LINE
  5
270
100
AcDbEntity
  8
grille2
  6
ByLayer
 62
  256
370
   -1
100
AcDbLine
 10
-800
 20
-800
 11
-800
 21
-700
  0
LINE
  5
271
100
AcDbEntity
  8
grille2
  6
ByLayer
 62
  256
370
   -1
100
AcDbLine
 10
-900
 20
-900
 11
-800
 21
-900
  0
LINE
  5
272
100
AcDbEntity
  8
grille2
  6
ByLayer
 62
  256
370
   -1
100
AcDbLine
 10
-800
 20
-900
 11
-800
 21
-800
  0
LINE
  5
273
100
AcDbEntity
  8
grille2
  6
ByLayer
 62
  256
370
   -1
100
AcDbLine
 10
-900
 20
-1000
 11
-800
 21
-1000
  0
LINE
  5
274
100
AcDbEntity
  8
grille2
  6
ByLayer
 62
  256
370
   -1
100
AcDbLine
 10
-800
 20
-1000
 11
-800
 21
-900
  0
LINE
  5
275
100
AcDbEntity
  8
grille2
  6
ByLayer
 62
  256
370
   -1
100
AcDbLine
 10
-900
 20
-1100
 11
-800
 21
-1100
  0
LINE
  5
276
100
AcDbEntity
  8
grille2
  6
ByLayer
 62
  256
370
   -1
100
AcDbLine
 10
-800
 20
-1100
 11
-800
 21
-1000
  0
LINE
  5
277
100
AcDbEntity
  8
grille2
  6
ByLayer
 62
  256
370
   -1
100
AcDbLine
 10
-900
 20
-1200
 11
-800
 21
-1200
  0
LINE
  5
278
100
AcDbEntity
  8
grille2
  6
ByLayer
 62
  256
370
   -1
100
AcDbLine
 10
-800
 20
-1200
 11
-800
 21
-1100
  0
LINE
  5
279
100
AcDbEntity
  8
grille2
  6
ByLayer
 62
  256
370
   -1
100
AcDbLine
 10
-900
 20
-1300
 11
-800
 21
-1300
  0
LINE
  5
27A
100
AcDbEntity
  8
grille2
  6
ByLayer
 62
  256
370
   -1
100
AcDbLine
 10
-800
 20
-1300
 11
-800
 21
-1200
  0
LINE
  5
27B
100
AcDbEntity
  8
grille2
  6
ByLayer
 62
  256
370
   -1
100
AcDbLine
 10
-900
 20
-1400
 11
-800
 21
-1400
  0
LINE
  5
27C
100
AcDbEntity
  8
grille2
  6
ByLayer
 62
  256
370
   -1
100
AcDbLine
 10
-800
 20
-1400
 11
-800
 21
-1300
  0
LINE
  5
27D
100
AcDbEntity
  8
grille2
  6
ByLayer
 62
  256
370
   -1
100
AcDbLine
 10
-900
 20
-1500
 11
-800
 21
-1500
  0
LINE
  5
27E
100
AcDbEntity
  8
grille2
  6
ByLayer
 62
  256
370
   -1
100
AcDbLine
 10
-800
 20
-1500
 11
-800
 21
-1400
  0
LINE
  5
27F
100
AcDbEntity
  8
grille2
  6
ByLayer
 62
  256
370
   -1
100
AcDbLine
 10
-900
 20
-1600
 11
-800
 21
-1600
  0
LINE
  5
280
100
AcDbEntity
  8
grille2
  6
ByLayer
 62
  256
370
   -1
100
AcDbLine
 10
-800
 20
-1600
 11
-800
 21
-1500
  0
LINE
  5
281
100
AcDbEntity
  8
grille2
  6
ByLayer
 62
  256
370
   -1
100
AcDbLine
 10
-900
 20
-1700
 11
-800
 21
-1700
  0
LINE
  5
282
100
AcDbEntity
  8
grille2
  6
ByLayer
 62
  256
370
   -1
100
AcDbLine
 10
-800
 20
-1700
 11
-800
 21
-1600
  0
LINE
  5
283
100
AcDbEntity
  8
grille2
  6
ByLayer
 62
  256
370
   -1
100
AcDbLine
 10
-900
 20
400
 11
-800
 21
400
  0
LINE
  5
284
100
AcDbEntity
  8
grille2
  6
ByLayer
 62
  256
370
   -1
100
AcDbLine
 10
-800
 20
300
 11
-700
 21
300
  0
LINE
  5
285
100
AcDbEntity
  8
grille2
  6
ByLayer
 62
  256
370
   -1
100
AcDbLine
 10
-700
 20
300
 11
-700
 21
400
  0
LINE
  5
286
100
AcDbEntity
  8
grille2
  6
ByLayer
 62
  256
370
   -1
100
AcDbLine
 10
-800
 20
200
 11
-700
 21
200
  0
LINE
  5
287
100
AcDbEntity
  8
grille2
  6
ByLayer
 62
  256
370
   -1
100
AcDbLine
 10
-700
 20
200
 11
-700
 21
300
  0
LINE
  5
288
100
AcDbEntity
  8
grille2
  6
ByLayer
 62
  256
370
   -1
100
AcDbLine
 10
-800
 20
100
 11
-700
 21
100
  0
LINE
  5
289
100
AcDbEntity
  8
grille2
  6
ByLayer
 62
  256
370
   -1
100
AcDbLine
 10
-700
 20
100
 11
-700
 21
200
  0
LINE
  5
28A
100
AcDbEntity
  8
grille2
  6
ByLayer
 62
  256
370
   -1
100
AcDbLine
 10
-800
 20
0
 11
-700
 21
0
  0
LINE
  5
28B
100
AcDbEntity
  8
grille2
  6
ByLayer
 62
  256
370
   -1
100
AcDbLine
 10
-700
 20
0
 11
-700
 21
100
  0
LINE
  5
28C
100
AcDbEntity
  8
grille2
  6
ByLayer
 62
  256
370
   -1
100
AcDbLine
 10
-800
 20
-100
 11
-700
 21
-100
  0
LINE
  5
28D
100
AcDbEntity
  8
grille2
  6
ByLayer
 62
  256
370
   -1
100
AcDbLine
 10
-700
 20
-100
 11
-700
 21
0
  0
LINE
  5
28E
100
AcDbEntity
  8
grille2
  6
ByLayer
 62
  256
370
   -1
100
AcDbLine
 10
-800
 20
-200
 11
-700
 21
-200
  0
LINE
  5
28F
100
AcDbEntity
  8
grille2
  6
ByLayer
 62
  256
370
   -1
100
AcDbLine
 10
-700
 20
-200
 11
-700
 21
-100
  0
LINE
  5
290
100
AcDbEntity
  8
grille2
  6
ByLayer
 62
  256
370
   -1
100
AcDbLine
 10
-800
 20
-300
 11
-700
 21
-300
  0
LINE
  5
291
100
AcDbEntity
  8
grille2
  6
ByLayer
 62
  256
370
   -1
100
AcDbLine
 10
-700
 20
-300
 11
-700
 21
-200
  0
LINE
  5
292
100
AcDbEntity
  8
grille2
  6
ByLayer
 62
  256
370
   -1
100
AcDbLine
 10
-800
 20
-400
 11
-700
 21
-400
  0
LINE
  5
293
100
AcDbEntity
  8
grille2
  6
ByLayer
 62
  256
370
   -1
100
AcDbLine
 10
-700
 20
-400
 11
-700
 21
-300
  0
LINE
  5
294
100
AcDbEntity
  8
grille2
  6
ByLayer
 62
  256
370
   -1
100
AcDbLine
 10
-800
 20
-500
 11
-700
 21
-500
  0
LINE
  5
295
100
AcDbEntity
  8
grille2
  6
ByLayer
 62
  256
370
   -1
100
AcDbLine
 10
-700
 20
-500
 11
-700
 21
-400
  0
LINE
  5
296
100
AcDbEntity
  8
grille2
  6
ByLayer
 62
  256
370
   -1
100
AcDbLine
 10
-800
 20
-600
 11
-700
 21
-600
  0
LINE
  5
297
100
AcDbEntity
  8
grille2
  6
ByLayer
 62
  256
370
   -1
100
AcDbLine
 10
-700
 20
-600
 11
-700
 21
-500
  0
LINE
  5
298
100
AcDbEntity
  8
grille2
  6
ByLayer
 62
  256
370
   -1
100
AcDbLine
 10
-800
 20
-700
 11
-700
 21
-700
  0
LINE
  5
299
100
AcDbEntity
  8
grille2
  6
ByLayer
 62
  256
370
   -1
100
AcDbLine
 10
-700
 20
-700
 11
-700
 21
-600
  0
LINE
  5
29A
100
AcDbEntity
  8
grille2
  6
ByLayer
 62
  256
370
   -1
100
AcDbLine
 10
-800
 20
-800
 11
-700
 21
-800
  0
LINE
  5
29B
100
AcDbEntity
  8
grille2
  6
ByLayer
 62
  256
370
   -1
100
AcDbLine
 10
-700
 20
-800
 11
-700
 21
-700
  0
LINE
  5
29C
100
AcDbEntity
  8
grille2
  6
ByLayer
 62
  256
370
   -1
100
AcDbLine
 10
-800
 20
-900
 11
-700
 21
-900
  0
LINE
  5
29D
100
AcDbEntity
  8
grille2
  6
ByLayer
 62
  256
370
   -1
100
AcDbLine
 10
-700
 20
-900
 11
-700
 21
-800
  0
LINE
  5
29E
100
AcDbEntity
  8
grille2
  6
ByLayer
 62
  256
370
   -1
100
AcDbLine
 10
-800
 20
-1000
 11
-700
 21
-1000
  0
LINE
  5
29F
100
AcDbEntity
  8
grille2
  6
ByLayer
 62
  256
370
   -1
100
AcDbLine
 10
-700
 20
-1000
 11
-700
 21
-900
  0
LINE
  5
2A0
100
AcDbEntity
  8
grille2
  6
ByLayer
 62
  256
370
   -1
100
AcDbLine
 10
-800
 20
-1100
 11
-700
 21
-1100
  0
LINE
  5
2A1
100
AcDbEntity
  8
grille2
  6
ByLayer
 62
  256
370
   -1
100
AcDbLine
 10
-700
 20
-1100
 11
-700
 21
-1000
  0
LINE
  5
2A2
100
AcDbEntity
  8
grille2
  6
ByLayer
 62
  256
370
   -1
100
AcDbLine
 10
-800
 20
-1200
 11
-700
 21
-1200
  0
LINE
  5
2A3
100
AcDbEntity
  8
grille2
  6
ByLayer
 62
  256
370
   -1
100
AcDbLine
 10
-700
 20
-1200
 11
-700
 21
-1100
  0
LINE
  5
2A4
100
AcDbEntity
  8
grille2
  6
ByLayer
 62
  256
370
   -1
100
AcDbLine
 10
-800
 20
-1300
 11
-700
 21
-1300
  0
LINE
  5
2A5
100
AcDbEntity
  8
grille2
  6
ByLayer
 62
  256
370
   -1
100
AcDbLine
 10
-700
 20
-1300
 11
-700
 21
-1200
  0
LINE
  5
2A6
100
AcDbEntity
  8
grille2
  6
ByLayer
 62
  256
370
   -1
100
AcDbLine
 10
-800
 20
-1400
 11
-700
 21
-1400
  0
LINE
  5
2A7
100
AcDbEntity
  8
grille2
  6
ByLayer
 62
  256
370
   -1
100
AcDbLine
 10
-700
 20
-1400
 11
-700
 21
-1300
  0
LINE
  5
2A8
100
AcDbEntity
  8
grille2
  6
ByLayer
 62
  256
370
   -1
100
AcDbLine
 10
-800
 20
-1500
 11
-700
 21
-1500
  0
LINE
  5
2A9
100
AcDbEntity
  8
grille2
  6
ByLayer
 62
  256
370
   -1
100
AcDbLine
 10
-700
 20
-1500
 11
-700
 21
-1400
  0
LINE
  5
2AA
100
AcDbEntity
  8
grille2
  6
ByLayer
 62
  256
370
   -1
100
AcDbLine
 10
-800
 20
-1600
 11
-700
 21
-1600
  0
LINE
  5
2AB
100
AcDbEntity
  8
grille2
  6
ByLayer
 62
  256
370
   -1
100
AcDbLine
 10
-700
 20
-1600
 11
-700
 21
-1500
  0
LINE
  5
2AC
100
AcDbEntity
  8
grille2
  6
ByLayer
 62
  256
370
   -1
100
AcDbLine
 10
-800
 20
-1700
 11
-700
 21
-1700
  0
LINE
  5
2AD
100
AcDbEntity
  8
grille2
  6
ByLayer
 62
  256
370
   -1
100
AcDbLine
 10
-700
 20
-1700
 11
-700
 21
-1600
  0
LINE
  5
2AE
100
AcDbEntity
  8
grille2
  6
ByLayer
 62
  256
370
   -1
100
AcDbLine
 10
-800
 20
400
 11
-700
 21
400
  0
LINE
  5
2AF
100
AcDbEntity
  8
grille2
  6
ByLayer
 62
  256
370
   -1
100
AcDbLine
 10
-700
 20
300
 11
-600
 21
300
  0
LINE
  5
2B0
100
AcDbEntity
  8
grille2
  6
ByLayer
 62
  256
370
   -1
100
AcDbLine
 10
-600
 20
300
 11
-600
 21
400
  0
LINE
  5
2B1
100
AcDbEntity
  8
grille2
  6
ByLayer
 62
  256
370
   -1
100
AcDbLine
 10
-700
 20
200
 11
-600
 21
200
  0
LINE
  5
2B2
100
AcDbEntity
  8
grille2
  6
ByLayer
 62
  256
370
   -1
100
AcDbLine
 10
-600
 20
200
 11
-600
 21
300
  0
LINE
  5
2B3
100
AcDbEntity
  8
grille2
  6
ByLayer
 62
  256
370
   -1
100
AcDbLine
 10
-700
 20
100
 11
-600
 21
100
  0
LINE
  5
2B4
100
AcDbEntity
  8
grille2
  6
ByLayer
 62
  256
370
   -1
100
AcDbLine
 10
-600
 20
100
 11
-600
 21
200
  0
LINE
  5
2B5
100
AcDbEntity
  8
grille2
  6
ByLayer
 62
  256
370
   -1
100
AcDbLine
 10
-700
 20
0
 11
-600
 21
0
  0
LINE
  5
2B6
100
AcDbEntity
  8
grille2
  6
ByLayer
 62
  256
370
   -1
100
AcDbLine
 10
-600
 20
0
 11
-600
 21
100
  0
LINE
  5
2B7
100
AcDbEntity
  8
grille2
  6
ByLayer
 62
  256
370
   -1
100
AcDbLine
 10
-700
 20
-100
 11
-600
 21
-100
  0
LINE
  5
2B8
100
AcDbEntity
  8
grille2
  6
ByLayer
 62
  256
370
   -1
100
AcDbLine
 10
-600
 20
-100
 11
-600
 21
0
  0
LINE
  5
2B9
100
AcDbEntity
  8
grille2
  6
ByLayer
 62
  256
370
   -1
100
AcDbLine
 10
-700
 20
-200
 11
-600
 21
-200
  0
LINE
  5
2BA
100
AcDbEntity
  8
grille2
  6
ByLayer
 62
  256
370
   -1
100
AcDbLine
 10
-600
 20
-200
 11
-600
 21
-100
  0
LINE
  5
2BB
100
AcDbEntity
  8
grille2
  6
ByLayer
 62
  256
370
   -1
100
AcDbLine
 10
-700
 20
-300
 11
-600
 21
-300
  0
LINE
  5
2BC
100
AcDbEntity
  8
grille2
  6
ByLayer
 62
  256
370
   -1
100
AcDbLine
 10
-600
 20
-300
 11
-600
 21
-200
  0
LINE
  5
2BD
100
AcDbEntity
  8
grille2
  6
ByLayer
 62
  256
370
   -1
100
AcDbLine
 10
-700
 20
-400
 11
-600
 21
-400
  0
LINE
  5
2BE
100
AcDbEntity
  8
grille2
  6
ByLayer
 62
  256
370
   -1
100
AcDbLine
 10
-600
 20
-400
 11
-600
 21
-300
  0
LINE
  5
2BF
100
AcDbEntity
  8
grille2
  6
ByLayer
 62
  256
370
   -1
100
AcDbLine
 10
-700
 20
-500
 11
-600
 21
-500
  0
LINE
  5
2C0
100
AcDbEntity
  8
grille2
  6
ByLayer
 62
  256
370
   -1
100
AcDbLine
 10
-600
 20
-500
 11
-600
 21
-400
  0
LINE
  5
2C1
100
AcDbEntity
  8
grille2
  6
ByLayer
 62
  256
370
   -1
100
AcDbLine
 10
-700
 20
-600
 11
-600
 21
-600
  0
LINE
  5
2C2
100
AcDbEntity
  8
grille2
  6
ByLayer
 62
  256
370
   -1
100
AcDbLine
 10
-600
 20
-600
 11
-600
 21
-500
  0
LINE
  5
2C3
100
AcDbEntity
  8
grille2
  6
ByLayer
 62
  256
370
   -1
100
AcDbLine
 10
-700
 20
-700
 11
-600
 21
-700
  0
LINE
  5
2C4
100
AcDbEntity
  8
grille2
  6
ByLayer
 62
  256
370
   -1
100
AcDbLine
 10
-600
 20
-700
 11
-600
 21
-600
  0
LINE
  5
2C5
100
AcDbEntity
  8
grille2
  6
ByLayer
 62
  256
370
   -1
100
AcDbLine
 10
-700
 20
-800
 11
-600
 21
-800
  0
LINE
  5
2C6
100
AcDbEntity
  8
grille2
  6
ByLayer
 62
  256
370
   -1
100
AcDbLine
 10
-600
 20
-800
 11
-600
 21
-700
  0
LINE
  5
2C7
100
AcDbEntity
  8
grille2
  6
ByLayer
 62
  256
370
   -1
100
AcDbLine
 10
-700
 20
-900
 11
-600
 21
-900
  0
LINE
  5
2C8
100
AcDbEntity
  8
grille2
  6
ByLayer
 62
  256
370
   -1
100
AcDbLine
 10
-600
 20
-900
 11
-600
 21
-800
  0
LINE
  5
2C9
100
AcDbEntity
  8
grille2
  6
ByLayer
 62
  256
370
   -1
100
AcDbLine
 10
-700
 20
-1000
 11
-600
 21
-1000
  0
LINE
  5
2CA
100
AcDbEntity
  8
grille2
  6
ByLayer
 62
  256
370
   -1
100
AcDbLine
 10
-600
 20
-1000
 11
-600
 21
-900
  0
LINE
  5
2CB
100
AcDbEntity
  8
grille2
  6
ByLayer
 62
  256
370
   -1
100
AcDbLine
 10
-700
 20
-1100
 11
-600
 21
-1100
  0
LINE
  5
2CC
100
AcDbEntity
  8
grille2
  6
ByLayer
 62
  256
370
   -1
100
AcDbLine
 10
-600
 20
-1100
 11
-600
 21
-1000
  0
LINE
  5
2CD
100
AcDbEntity
  8
grille2
  6
ByLayer
 62
  256
370
   -1
100
AcDbLine
 10
-700
 20
-1200
 11
-600
 21
-1200
  0
LINE
  5
2CE
100
AcDbEntity
  8
grille2
  6
ByLayer
 62
  256
370
   -1
100
AcDbLine
 10
-600
 20
-1200
 11
-600
 21
-1100
  0
LINE
  5
2CF
100
AcDbEntity
  8
grille2
  6
ByLayer
 62
  256
370
   -1
100
AcDbLine
 10
-700
 20
-1300
 11
-600
 21
-1300
  0
LINE
  5
2D0
100
AcDbEntity
  8
grille2
  6
ByLayer
 62
  256
370
   -1
100
AcDbLine
 10
-600
 20
-1300
 11
-600
 21
-1200
  0
LINE
  5
2D1
100
AcDbEntity
  8
grille2
  6
ByLayer
 62
  256
370
   -1
100
AcDbLine
 10
-700
 20
-1400
 11
-600
 21
-1400
  0
LINE
  5
2D2
100
AcDbEntity
  8
grille2
  6
ByLayer
 62
  256
370
   -1
100
AcDbLine
 10
-600
 20
-1400
 11
-600
 21
-1300
  0
LINE
  5
2D3
100
AcDbEntity
  8
grille2
  6
ByLayer
 62
  256
370
   -1
100
AcDbLine
 10
-700
 20
-1500
 11
-600
 21
-1500
  0
LINE
  5
2D4
100
AcDbEntity
  8
grille2
  6
ByLayer
 62
  256
370
   -1
100
AcDbLine
 10
-600
 20
-1500
 11
-600
 21
-1400
  0
LINE
  5
2D5
100
AcDbEntity
  8
grille2
  6
ByLayer
 62
  256
370
   -1
100
AcDbLine
 10
-700
 20
-1600
 11
-600
 21
-1600
  0
LINE
  5
2D6
100
AcDbEntity
  8
grille2
  6
ByLayer
 62
  256
370
   -1
100
AcDbLine
 10
-600
 20
-1600
 11
-600
 21
-1500
  0
LINE
  5
2D7
100
AcDbEntity
  8
grille2
  6
ByLayer
 62
  256
370
   -1
100
AcDbLine
 10
-700
 20
-1700
 11
-600
 21
-1700
  0
LINE
  5
2D8
100
AcDbEntity
  8
grille2
  6
ByLayer
 62
  256
370
   -1
100
AcDbLine
 10
-600
 20
-1700
 11
-600
 21
-1600
  0
LINE
  5
2D9
100
AcDbEntity
  8
grille2
  6
ByLayer
 62
  256
370
   -1
100
AcDbLine
 10
-700
 20
400
 11
-600
 21
400
  0
LINE
  5
2DA
100
AcDbEntity
  8
grille2
  6
ByLayer
 62
  256
370
   -1
100
AcDbLine
 10
-600
 20
300
 11
-500
 21
300
  0
LINE
  5
2DB
100
AcDbEntity
  8
grille2
  6
ByLayer
 62
  256
370
   -1
100
AcDbLine
 10
-500
 20
300
 11
-500
 21
400
  0
LINE
  5
2DC
100
AcDbEntity
  8
grille2
  6
ByLayer
 62
  256
370
   -1
100
AcDbLine
 10
-600
 20
200
 11
-500
 21
200
  0
LINE
  5
2DD
100
AcDbEntity
  8
grille2
  6
ByLayer
 62
  256
370
   -1
100
AcDbLine
 10
-500
 20
200
 11
-500
 21
300
  0
LINE
  5
2DE
100
AcDbEntity
  8
grille2
  6
ByLayer
 62
  256
370
   -1
100
AcDbLine
 10
-600
 20
100
 11
-500
 21
100
  0
LINE
  5
2DF
100
AcDbEntity
  8
grille2
  6
ByLayer
 62
  256
370
   -1
100
AcDbLine
 10
-500
 20
100
 11
-500
 21
200
  0
LINE
  5
2E0
100
AcDbEntity
  8
grille2
  6
ByLayer
 62
  256
370
   -1
100
AcDbLine
 10
-600
 20
0
 11
-500
 21
0
  0
LINE
  5
2E1
100
AcDbEntity
  8
grille2
  6
ByLayer
 62
  256
370
   -1
100
AcDbLine
 10
-500
 20
0
 11
-500
 21
100
  0
LINE
  5
2E2
100
AcDbEntity
  8
grille2
  6
ByLayer
 62
  256
370
   -1
100
AcDbLine
 10
-600
 20
-100
 11
-500
 21
-100
  0
LINE
  5
2E3
100
AcDbEntity
  8
grille2
  6
ByLayer
 62
  256
370
   -1
100
AcDbLine
 10
-500
 20
-100
 11
-500
 21
0
  0
LINE
  5
2E4
100
AcDbEntity
  8
grille2
  6
ByLayer
 62
  256
370
   -1
100
AcDbLine
 10
-600
 20
-200
 11
-500
 21
-200
  0
LINE
  5
2E5
100
AcDbEntity
  8
grille2
  6
ByLayer
 62
  256
370
   -1
100
AcDbLine
 10
-500
 20
-200
 11
-500
 21
-100
  0
LINE
  5
2E6
100
AcDbEntity
  8
grille2
  6
ByLayer
 62
  256
370
   -1
100
AcDbLine
 10
-600
 20
-300
 11
-500
 21
-300
  0
LINE
  5
2E7
100
AcDbEntity
  8
grille2
  6
ByLayer
 62
  256
370
   -1
100
AcDbLine
 10
-500
 20
-300
 11
-500
 21
-200
  0
LINE
  5
2E8
100
AcDbEntity
  8
grille2
  6
ByLayer
 62
  256
370
   -1
100
AcDbLine
 10
-600
 20
-400
 11
-500
 21
-400
  0
LINE
  5
2E9
100
AcDbEntity
  8
grille2
  6
ByLayer
 62
  256
370
   -1
100
AcDbLine
 10
-500
 20
-400
 11
-500
 21
-300
  0
LINE
  5
2EA
100
AcDbEntity
  8
grille2
  6
ByLayer
 62
  256
370
   -1
100
AcDbLine
 10
-600
 20
-500
 11
-500
 21
-500
  0
LINE
  5
2EB
100
AcDbEntity
  8
grille2
  6
ByLayer
 62
  256
370
   -1
100
AcDbLine
 10
-500
 20
-500
 11
-500
 21
-400
  0
LINE
  5
2EC
100
AcDbEntity
  8
grille2
  6
ByLayer
 62
  256
370
   -1
100
AcDbLine
 10
-600
 20
-600
 11
-500
 21
-600
  0
LINE
  5
2ED
100
AcDbEntity
  8
grille2
  6
ByLayer
 62
  256
370
   -1
100
AcDbLine
 10
-500
 20
-600
 11
-500
 21
-500
  0
LINE
  5
2EE
100
AcDbEntity
  8
grille2
  6
ByLayer
 62
  256
370
   -1
100
AcDbLine
 10
-600
 20
-700
 11
-500
 21
-700
  0
LINE
  5
2EF
100
AcDbEntity
  8
grille2
  6
ByLayer
 62
  256
370
   -1
100
AcDbLine
 10
-500
 20
-700
 11
-500
 21
-600
  0
LINE
  5
2F0
100
AcDbEntity
  8
grille2
  6
ByLayer
 62
  256
370
   -1
100
AcDbLine
 10
-600
 20
-800
 11
-500
 21
-800
  0
LINE
  5
2F1
100
AcDbEntity
  8
grille2
  6
ByLayer
 62
  256
370
   -1
100
AcDbLine
 10
-500
 20
-800
 11
-500
 21
-700
  0
LINE
  5
2F2
100
AcDbEntity
  8
grille2
  6
ByLayer
 62
  256
370
   -1
100
AcDbLine
 10
-600
 20
-900
 11
-500
 21
-900
  0
LINE
  5
2F3
100
AcDbEntity
  8
grille2
  6
ByLayer
 62
  256
370
   -1
100
AcDbLine
 10
-500
 20
-900
 11
-500
 21
-800
  0
LINE
  5
2F4
100
AcDbEntity
  8
grille2
  6
ByLayer
 62
  256
370
   -1
100
AcDbLine
 10
-600
 20
-1000
 11
-500
 21
-1000
  0
LINE
  5
2F5
100
AcDbEntity
  8
grille2
  6
ByLayer
 62
  256
370
   -1
100
AcDbLine
 10
-500
 20
-1000
 11
-500
 21
-900
  0
LINE
  5
2F6
100
AcDbEntity
  8
grille2
  6
ByLayer
 62
  256
370
   -1
100
AcDbLine
 10
-600
 20
-1100
 11
-500
 21
-1100
  0
LINE
  5
2F7
100
AcDbEntity
  8
grille2
  6
ByLayer
 62
  256
370
   -1
100
AcDbLine
 10
-500
 20
-1100
 11
-500
 21
-1000
  0
LINE
  5
2F8
100
AcDbEntity
  8
grille2
  6
ByLayer
 62
  256
370
   -1
100
AcDbLine
 10
-600
 20
-1200
 11
-500
 21
-1200
  0
LINE
  5
2F9
100
AcDbEntity
  8
grille2
  6
ByLayer
 62
  256
370
   -1
100
AcDbLine
 10
-500
 20
-1200
 11
-500
 21
-1100
  0
LINE
  5
2FA
100
AcDbEntity
  8
grille2
  6
ByLayer
 62
  256
370
   -1
100
AcDbLine
 10
-600
 20
-1300
 11
-500
 21
-1300
  0
LINE
  5
2FB
100
AcDbEntity
  8
grille2
  6
ByLayer
 62
  256
370
   -1
100
AcDbLine
 10
-500
 20
-1300
 11
-500
 21
-1200
  0
LINE
  5
2FC
100
AcDbEntity
  8
grille2
  6
ByLayer
 62
  256
370
   -1
100
AcDbLine
 10
-600
 20
-1400
 11
-500
 21
-1400
  0
LINE
  5
2FD
100
AcDbEntity
  8
grille2
  6
ByLayer
 62
  256
370
   -1
100
AcDbLine
 10
-500
 20
-1400
 11
-500
 21
-1300
  0
LINE
  5
2FE
100
AcDbEntity
  8
grille2
  6
ByLayer
 62
  256
370
   -1
100
AcDbLine
 10
-600
 20
-1500
 11
-500
 21
-1500
  0
LINE
  5
2FF
100
AcDbEntity
  8
grille2
  6
ByLayer
 62
  256
370
   -1
100
AcDbLine
 10
-500
 20
-1500
 11
-500
 21
-1400
  0
LINE
  5
300
100
AcDbEntity
  8
grille2
  6
ByLayer
 62
  256
370
   -1
100
AcDbLine
 10
-600
 20
-1600
 11
-500
 21
-1600
  0
LINE
  5
301
100
AcDbEntity
  8
grille2
  6
ByLayer
 62
  256
370
   -1
100
AcDbLine
 10
-500
 20
-1600
 11
-500
 21
-1500
  0
LINE
  5
302
100
AcDbEntity
  8
grille2
  6
ByLayer
 62
  256
370
   -1
100
AcDbLine
 10
-600
 20
-1700
 11
-500
 21
-1700
  0
LINE
  5
303
100
AcDbEntity
  8
grille2
  6
ByLayer
 62
  256
370
   -1
100
AcDbLine
 10
-500
 20
-1700
 11
-500
 21
-1600
  0
LINE
  5
304
100
AcDbEntity
  8
grille2
  6
ByLayer
 62
  256
370
   -1
100
AcDbLine
 10
-600
 20
400
 11
-500
 21
400
  0
LINE
  5
305
100
AcDbEntity
  8
grille2
  6
ByLayer
 62
  256
370
   -1
100
AcDbLine
 10
-500
 20
300
 11
-400
 21
300
  0
LINE
  5
306
100
AcDbEntity
  8
grille2
  6
ByLayer
 62
  256
370
   -1
100
AcDbLine
 10
-400
 20
300
 11
-400
 21
400
  0
LINE
  5
307
100
AcDbEntity
  8
grille2
  6
ByLayer
 62
  256
370
   -1
100
AcDbLine
 10
-500
 20
200
 11
-400
 21
200
  0
LINE
  5
308
100
AcDbEntity
  8
grille2
  6
ByLayer
 62
  256
370
   -1
100
AcDbLine
 10
-400
 20
200
 11
-400
 21
300
  0
LINE
  5
309
100
AcDbEntity
  8
grille2
  6
ByLayer
 62
  256
370
   -1
100
AcDbLine
 10
-500
 20
100
 11
-400
 21
100
  0
LINE
  5
30A
100
AcDbEntity
  8
grille2
  6
ByLayer
 62
  256
370
   -1
100
AcDbLine
 10
-400
 20
100
 11
-400
 21
200
  0
LINE
  5
30B
100
AcDbEntity
  8
grille2
  6
ByLayer
 62
  256
370
   -1
100
AcDbLine
 10
-500
 20
0
 11
-400
 21
0
  0
LINE
  5
30C
100
AcDbEntity
  8
grille2
  6
ByLayer
 62
  256
370
   -1
100
AcDbLine
 10
-400
 20
0
 11
-400
 21
100
  0
LINE
  5
30D
100
AcDbEntity
  8
grille2
  6
ByLayer
 62
  256
370
   -1
100
AcDbLine
 10
-500
 20
-100
 11
-400
 21
-100
  0
LINE
  5
30E
100
AcDbEntity
  8
grille2
  6
ByLayer
 62
  256
370
   -1
100
AcDbLine
 10
-400
 20
-100
 11
-400
 21
0
  0
LINE
  5
30F
100
AcDbEntity
  8
grille2
  6
ByLayer
 62
  256
370
   -1
100
AcDbLine
 10
-500
 20
-200
 11
-400
 21
-200
  0
LINE
  5
310
100
AcDbEntity
  8
grille2
  6
ByLayer
 62
  256
370
   -1
100
AcDbLine
 10
-400
 20
-200
 11
-400
 21
-100
  0
LINE
  5
311
100
AcDbEntity
  8
grille2
  6
ByLayer
 62
  256
370
   -1
100
AcDbLine
 10
-500
 20
-300
 11
-400
 21
-300
  0
LINE
  5
312
100
AcDbEntity
  8
grille2
  6
ByLayer
 62
  256
370
   -1
100
AcDbLine
 10
-400
 20
-300
 11
-400
 21
-200
  0
LINE
  5
313
100
AcDbEntity
  8
grille2
  6
ByLayer
 62
  256
370
   -1
100
AcDbLine
 10
-500
 20
-400
 11
-400
 21
-400
  0
LINE
  5
314
100
AcDbEntity
  8
grille2
  6
ByLayer
 62
  256
370
   -1
100
AcDbLine
 10
-400
 20
-400
 11
-400
 21
-300
  0
LINE
  5
315
100
AcDbEntity
  8
grille2
  6
ByLayer
 62
  256
370
   -1
100
AcDbLine
 10
-500
 20
-500
 11
-400
 21
-500
  0
LINE
  5
316
100
AcDbEntity
  8
grille2
  6
ByLayer
 62
  256
370
   -1
100
AcDbLine
 10
-400
 20
-500
 11
-400
 21
-400
  0
LINE
  5
317
100
AcDbEntity
  8
grille2
  6
ByLayer
 62
  256
370
   -1
100
AcDbLine
 10
-500
 20
-600
 11
-400
 21
-600
  0
LINE
  5
318
100
AcDbEntity
  8
grille2
  6
ByLayer
 62
  256
370
   -1
100
AcDbLine
 10
-400
 20
-600
 11
-400
 21
-500
  0
LINE
  5
319
100
AcDbEntity
  8
grille2
  6
ByLayer
 62
  256
370
   -1
100
AcDbLine
 10
-500
 20
-700
 11
-400
 21
-700
  0
LINE
  5
31A
100
AcDbEntity
  8
grille2
  6
ByLayer
 62
  256
370
   -1
100
AcDbLine
 10
-400
 20
-700
 11
-400
 21
-600
  0
LINE
  5
31B
100
AcDbEntity
  8
grille2
  6
ByLayer
 62
  256
370
   -1
100
AcDbLine
 10
-500
 20
-800
 11
-400
 21
-800
  0
LINE
  5
31C
100
AcDbEntity
  8
grille2
  6
ByLayer
 62
  256
370
   -1
100
AcDbLine
 10
-400
 20
-800
 11
-400
 21
-700
  0
LINE
  5
31D
100
AcDbEntity
  8
grille2
  6
ByLayer
 62
  256
370
   -1
100
AcDbLine
 10
-500
 20
-900
 11
-400
 21
-900
  0
LINE
  5
31E
100
AcDbEntity
  8
grille2
  6
ByLayer
 62
  256
370
   -1
100
AcDbLine
 10
-400
 20
-900
 11
-400
 21
-800
  0
LINE
  5
31F
100
AcDbEntity
  8
grille2
  6
ByLayer
 62
  256
370
   -1
100
AcDbLine
 10
-500
 20
-1000
 11
-400
 21
-1000
  0
LINE
  5
320
100
AcDbEntity
  8
grille2
  6
ByLayer
 62
  256
370
   -1
100
AcDbLine
 10
-400
 20
-1000
 11
-400
 21
-900
  0
LINE
  5
321
100
AcDbEntity
  8
grille2
  6
ByLayer
 62
  256
370
   -1
100
AcDbLine
 10
-500
 20
-1100
 11
-400
 21
-1100
  0
LINE
  5
322
100
AcDbEntity
  8
grille2
  6
ByLayer
 62
  256
370
   -1
100
AcDbLine
 10
-400
 20
-1100
 11
-400
 21
-1000
  0
LINE
  5
323
100
AcDbEntity
  8
grille2
  6
ByLayer
 62
  256
370
   -1
100
AcDbLine
 10
-500
 20
-1200
 11
-400
 21
-1200
  0
LINE
  5
324
100
AcDbEntity
  8
grille2
  6
ByLayer
 62
  256
370
   -1
100
AcDbLine
 10
-400
 20
-1200
 11
-400
 21
-1100
  0
LINE
  5
325
100
AcDbEntity
  8
grille2
  6
ByLayer
 62
  256
370
   -1
100
AcDbLine
 10
-500
 20
-1300
 11
-400
 21
-1300
  0
LINE
  5
326
100
AcDbEntity
  8
grille2
  6
ByLayer
 62
  256
370
   -1
100
AcDbLine
 10
-400
 20
-1300
 11
-400
 21
-1200
  0
LINE
  5
327
100
AcDbEntity
  8
grille2
  6
ByLayer
 62
  256
370
   -1
100
AcDbLine
 10
-500
 20
-1400
 11
-400
 21
-1400
  0
LINE
  5
328
100
AcDbEntity
  8
grille2
  6
ByLayer
 62
  256
370
   -1
100
AcDbLine
 10
-400
 20
-1400
 11
-400
 21
-1300
  0
LINE
  5
329
100
AcDbEntity
  8
grille2
  6
ByLayer
 62
  256
370
   -1
100
AcDbLine
 10
-500
 20
-1500
 11
-400
 21
-1500
  0
LINE
  5
32A
100
AcDbEntity
  8
grille2
  6
ByLayer
 62
  256
370
   -1
100
AcDbLine
 10
-400
 20
-1500
 11
-400
 21
-1400
  0
LINE
  5
32B
100
AcDbEntity
  8
grille2
  6
ByLayer
 62
  256
370
   -1
100
AcDbLine
 10
-500
 20
-1600
 11
-400
 21
-1600
  0
LINE
  5
32C
100
AcDbEntity
  8
grille2
  6
ByLayer
 62
  256
370
   -1
100
AcDbLine
 10
-400
 20
-1600
 11
-400
 21
-1500
  0
LINE
  5
32D
100
AcDbEntity
  8
grille2
  6
ByLayer
 62
  256
370
   -1
100
AcDbLine
 10
-500
 20
-1700
 11
-400
 21
-1700
  0
LINE
  5
32E
100
AcDbEntity
  8
grille2
  6
ByLayer
 62
  256
370
   -1
100
AcDbLine
 10
-400
 20
-1700
 11
-400
 21
-1600
  0
LINE
  5
32F
100
AcDbEntity
  8
grille2
  6
ByLayer
 62
  256
370
   -1
100
AcDbLine
 10
-500
 20
400
 11
-400
 21
400
  0
LINE
  5
330
100
AcDbEntity
  8
grille2
  6
ByLayer
 62
  256
370
   -1
100
AcDbLine
 10
-400
 20
300
 11
-300
 21
300
  0
LINE
  5
331
100
AcDbEntity
  8
grille2
  6
ByLayer
 62
  256
370
   -1
100
AcDbLine
 10
-300
 20
300
 11
-300
 21
400
  0
LINE
  5
332
100
AcDbEntity
  8
grille2
  6
ByLayer
 62
  256
370
   -1
100
AcDbLine
 10
-400
 20
200
 11
-300
 21
200
  0
LINE
  5
333
100
AcDbEntity
  8
grille2
  6
ByLayer
 62
  256
370
   -1
100
AcDbLine
 10
-300
 20
200
 11
-300
 21
300
  0
LINE
  5
334
100
AcDbEntity
  8
grille2
  6
ByLayer
 62
  256
370
   -1
100
AcDbLine
 10
-400
 20
100
 11
-300
 21
100
  0
LINE
  5
335
100
AcDbEntity
  8
grille2
  6
ByLayer
 62
  256
370
   -1
100
AcDbLine
 10
-300
 20
100
 11
-300
 21
200
  0
LINE
  5
336
100
AcDbEntity
  8
grille2
  6
ByLayer
 62
  256
370
   -1
100
AcDbLine
 10
-400
 20
0
 11
-300
 21
0
  0
LINE
  5
337
100
AcDbEntity
  8
grille2
  6
ByLayer
 62
  256
370
   -1
100
AcDbLine
 10
-300
 20
0
 11
-300
 21
100
  0
LINE
  5
338
100
AcDbEntity
  8
grille2
  6
ByLayer
 62
  256
370
   -1
100
AcDbLine
 10
-400
 20
-100
 11
-300
 21
-100
  0
LINE
  5
339
100
AcDbEntity
  8
grille2
  6
ByLayer
 62
  256
370
   -1
100
AcDbLine
 10
-300
 20
-100
 11
-300
 21
0
  0
LINE
  5
33A
100
AcDbEntity
  8
grille2
  6
ByLayer
 62
  256
370
   -1
100
AcDbLine
 10
-400
 20
-200
 11
-300
 21
-200
  0
LINE
  5
33B
100
AcDbEntity
  8
grille2
  6
ByLayer
 62
  256
370
   -1
100
AcDbLine
 10
-300
 20
-200
 11
-300
 21
-100
  0
LINE
  5
33C
100
AcDbEntity
  8
grille2
  6
ByLayer
 62
  256
370
   -1
100
AcDbLine
 10
-400
 20
-300
 11
-300
 21
-300
  0
LINE
  5
33D
100
AcDbEntity
  8
grille2
  6
ByLayer
 62
  256
370
   -1
100
AcDbLine
 10
-300
 20
-300
 11
-300
 21
-200
  0
LINE
  5
33E
100
AcDbEntity
  8
grille2
  6
ByLayer
 62
  256
370
   -1
100
AcDbLine
 10
-400
 20
-400
 11
-300
 21
-400
  0
LINE
  5
33F
100
AcDbEntity
  8
grille2
  6
ByLayer
 62
  256
370
   -1
100
AcDbLine
 10
-300
 20
-400
 11
-300
 21
-300
  0
LINE
  5
340
100
AcDbEntity
  8
grille2
  6
ByLayer
 62
  256
370
   -1
100
AcDbLine
 10
-400
 20
-500
 11
-300
 21
-500
  0
LINE
  5
341
100
AcDbEntity
  8
grille2
  6
ByLayer
 62
  256
370
   -1
100
AcDbLine
 10
-300
 20
-500
 11
-300
 21
-400
  0
LINE
  5
342
100
AcDbEntity
  8
grille2
  6
ByLayer
 62
  256
370
   -1
100
AcDbLine
 10
-400
 20
-600
 11
-300
 21
-600
  0
LINE
  5
343
100
AcDbEntity
  8
grille2
  6
ByLayer
 62
  256
370
   -1
100
AcDbLine
 10
-300
 20
-600
 11
-300
 21
-500
  0
LINE
  5
344
100
AcDbEntity
  8
grille2
  6
ByLayer
 62
  256
370
   -1
100
AcDbLine
 10
-400
 20
-700
 11
-300
 21
-700
  0
LINE
  5
345
100
AcDbEntity
  8
grille2
  6
ByLayer
 62
  256
370
   -1
100
AcDbLine
 10
-300
 20
-700
 11
-300
 21
-600
  0
LINE
  5
346
100
AcDbEntity
  8
grille2
  6
ByLayer
 62
  256
370
   -1
100
AcDbLine
 10
-400
 20
-800
 11
-300
 21
-800
  0
LINE
  5
347
100
AcDbEntity
  8
grille2
  6
ByLayer
 62
  256
370
   -1
100
AcDbLine
 10
-300
 20
-800
 11
-300
 21
-700
  0
LINE
  5
348
100
AcDbEntity
  8
grille2
  6
ByLayer
 62
  256
370
   -1
100
AcDbLine
 10
-400
 20
-900
 11
-300
 21
-900
  0
LINE
  5
349
100
AcDbEntity
  8
grille2
  6
ByLayer
 62
  256
370
   -1
100
AcDbLine
 10
-300
 20
-900
 11
-300
 21
-800
  0
LINE
  5
34A
100
AcDbEntity
  8
grille2
  6
ByLayer
 62
  256
370
   -1
100
AcDbLine
 10
-400
 20
-1000
 11
-300
 21
-1000
  0
LINE
  5
34B
100
AcDbEntity
  8
grille2
  6
ByLayer
 62
  256
370
   -1
100
AcDbLine
 10
-300
 20
-1000
 11
-300
 21
-900
  0
LINE
  5
34C
100
AcDbEntity
  8
grille2
  6
ByLayer
 62
  256
370
   -1
100
AcDbLine
 10
-400
 20
-1100
 11
-300
 21
-1100
  0
LINE
  5
34D
100
AcDbEntity
  8
grille2
  6
ByLayer
 62
  256
370
   -1
100
AcDbLine
 10
-300
 20
-1100
 11
-300
 21
-1000
  0
LINE
  5
34E
100
AcDbEntity
  8
grille2
  6
ByLayer
 62
  256
370
   -1
100
AcDbLine
 10
-400
 20
-1200
 11
-300
 21
-1200
  0
LINE
  5
34F
100
AcDbEntity
  8
grille2
  6
ByLayer
 62
  256
370
   -1
100
AcDbLine
 10
-300
 20
-1200
 11
-300
 21
-1100
  0
LINE
  5
350
100
AcDbEntity
  8
grille2
  6
ByLayer
 62
  256
370
   -1
100
AcDbLine
 10
-400
 20
-1300
 11
-300
 21
-1300
  0
LINE
  5
351
100
AcDbEntity
  8
grille2
  6
ByLayer
 62
  256
370
   -1
100
AcDbLine
 10
-300
 20
-1300
 11
-300
 21
-1200
  0
LINE
  5
352
100
AcDbEntity
  8
grille2
  6
ByLayer
 62
  256
370
   -1
100
AcDbLine
 10
-400
 20
-1400
 11
-300
 21
-1400
  0
LINE
  5
353
100
AcDbEntity
  8
grille2
  6
ByLayer
 62
  256
370
   -1
100
AcDbLine
 10
-300
 20
-1400
 11
-300
 21
-1300
  0
LINE
  5
354
100
AcDbEntity
  8
grille2
  6
ByLayer
 62
  256
370
   -1
100
AcDbLine
 10
-400
 20
-1500
 11
-300
 21
-1500
  0
LINE
  5
355
100
AcDbEntity
  8
grille2
  6
ByLayer
 62
  256
370
   -1
100
AcDbLine
 10
-300
 20
-1500
 11
-300
 21
-1400
  0
LINE
  5
356
100
AcDbEntity
  8
grille2
  6
ByLayer
 62
  256
370
   -1
100
AcDbLine
 10
-400
 20
-1600
 11
-300
 21
-1600
  0
LINE
  5
357
100
AcDbEntity
  8
grille2
  6
ByLayer
 62
  256
370
   -1
100
AcDbLine
 10
-300
 20
-1600
 11
-300
 21
-1500
  0
LINE
  5
358
100
AcDbEntity
  8
grille2
  6
ByLayer
 62
  256
370
   -1
100
AcDbLine
 10
-400
 20
-1700
 11
-300
 21
-1700
  0
LINE
  5
359
100
AcDbEntity
  8
grille2
  6
ByLayer
 62
  256
370
   -1
100
AcDbLine
 10
-300
 20
-1700
 11
-300
 21
-1600
  0
LINE
  5
35A
100
AcDbEntity
  8
grille2
  6
ByLayer
 62
  256
370
   -1
100
AcDbLine
 10
-400
 20
400
 11
-300
 21
400
  0
LINE
  5
35B
100
AcDbEntity
  8
grille2
  6
ByLayer
 62
  256
370
   -1
100
AcDbLine
 10
-300
 20
300
 11
-200
 21
300
  0
LINE
  5
35C
100
AcDbEntity
  8
grille2
  6
ByLayer
 62
  256
370
   -1
100
AcDbLine
 10
-200
 20
300
 11
-200
 21
400
  0
LINE
  5
35D
100
AcDbEntity
  8
grille2
  6
ByLayer
 62
  256
370
   -1
100
AcDbLine
 10
-300
 20
200
 11
-200
 21
200
  0
LINE
  5
35E
100
AcDbEntity
  8
grille2
  6
ByLayer
 62
  256
370
   -1
100
AcDbLine
 10
-200
 20
200
 11
-200
 21
300
  0
LINE
  5
35F
100
AcDbEntity
  8
grille2
  6
ByLayer
 62
  256
370
   -1
100
AcDbLine
 10
-300
 20
100
 11
-200
 21
100
  0
LINE
  5
360
100
AcDbEntity
  8
grille2
  6
ByLayer
 62
  256
370
   -1
100
AcDbLine
 10
-200
 20
100
 11
-200
 21
200
  0
LINE
  5
361
100
AcDbEntity
  8
grille2
  6
ByLayer
 62
  256
370
   -1
100
AcDbLine
 10
-300
 20
0
 11
-200
 21
0
  0
LINE
  5
362
100
AcDbEntity
  8
grille2
  6
ByLayer
 62
  256
370
   -1
100
AcDbLine
 10
-200
 20
0
 11
-200
 21
100
  0
LINE
  5
363
100
AcDbEntity
  8
grille2
  6
ByLayer
 62
  256
370
   -1
100
AcDbLine
 10
-300
 20
-100
 11
-200
 21
-100
  0
LINE
  5
364
100
AcDbEntity
  8
grille2
  6
ByLayer
 62
  256
370
   -1
100
AcDbLine
 10
-200
 20
-100
 11
-200
 21
0
  0
LINE
  5
365
100
AcDbEntity
  8
grille2
  6
ByLayer
 62
  256
370
   -1
100
AcDbLine
 10
-300
 20
-200
 11
-200
 21
-200
  0
LINE
  5
366
100
AcDbEntity
  8
grille2
  6
ByLayer
 62
  256
370
   -1
100
AcDbLine
 10
-200
 20
-200
 11
-200
 21
-100
  0
LINE
  5
367
100
AcDbEntity
  8
grille2
  6
ByLayer
 62
  256
370
   -1
100
AcDbLine
 10
-300
 20
-300
 11
-200
 21
-300
  0
LINE
  5
368
100
AcDbEntity
  8
grille2
  6
ByLayer
 62
  256
370
   -1
100
AcDbLine
 10
-200
 20
-300
 11
-200
 21
-200
  0
LINE
  5
369
100
AcDbEntity
  8
grille2
  6
ByLayer
 62
  256
370
   -1
100
AcDbLine
 10
-300
 20
-400
 11
-200
 21
-400
  0
LINE
  5
36A
100
AcDbEntity
  8
grille2
  6
ByLayer
 62
  256
370
   -1
100
AcDbLine
 10
-200
 20
-400
 11
-200
 21
-300
  0
LINE
  5
36B
100
AcDbEntity
  8
grille2
  6
ByLayer
 62
  256
370
   -1
100
AcDbLine
 10
-300
 20
-500
 11
-200
 21
-500
  0
LINE
  5
36C
100
AcDbEntity
  8
grille2
  6
ByLayer
 62
  256
370
   -1
100
AcDbLine
 10
-200
 20
-500
 11
-200
 21
-400
  0
LINE
  5
36D
100
AcDbEntity
  8
grille2
  6
ByLayer
 62
  256
370
   -1
100
AcDbLine
 10
-300
 20
-600
 11
-200
 21
-600
  0
LINE
  5
36E
100
AcDbEntity
  8
grille2
  6
ByLayer
 62
  256
370
   -1
100
AcDbLine
 10
-200
 20
-600
 11
-200
 21
-500
  0
LINE
  5
36F
100
AcDbEntity
  8
grille2
  6
ByLayer
 62
  256
370
   -1
100
AcDbLine
 10
-300
 20
-700
 11
-200
 21
-700
  0
LINE
  5
370
100
AcDbEntity
  8
grille2
  6
ByLayer
 62
  256
370
   -1
100
AcDbLine
 10
-200
 20
-700
 11
-200
 21
-600
  0
LINE
  5
371
100
AcDbEntity
  8
grille2
  6
ByLayer
 62
  256
370
   -1
100
AcDbLine
 10
-300
 20
-800
 11
-200
 21
-800
  0
LINE
  5
372
100
AcDbEntity
  8
grille2
  6
ByLayer
 62
  256
370
   -1
100
AcDbLine
 10
-200
 20
-800
 11
-200
 21
-700
  0
LINE
  5
373
100
AcDbEntity
  8
grille2
  6
ByLayer
 62
  256
370
   -1
100
AcDbLine
 10
-300
 20
-900
 11
-200
 21
-900
  0
LINE
  5
374
100
AcDbEntity
  8
grille2
  6
ByLayer
 62
  256
370
   -1
100
AcDbLine
 10
-200
 20
-900
 11
-200
 21
-800
  0
LINE
  5
375
100
AcDbEntity
  8
grille2
  6
ByLayer
 62
  256
370
   -1
100
AcDbLine
 10
-300
 20
-1000
 11
-200
 21
-1000
  0
LINE
  5
376
100
AcDbEntity
  8
grille2
  6
ByLayer
 62
  256
370
   -1
100
AcDbLine
 10
-200
 20
-1000
 11
-200
 21
-900
  0
LINE
  5
377
100
AcDbEntity
  8
grille2
  6
ByLayer
 62
  256
370
   -1
100
AcDbLine
 10
-300
 20
-1100
 11
-200
 21
-1100
  0
LINE
  5
378
100
AcDbEntity
  8
grille2
  6
ByLayer
 62
  256
370
   -1
100
AcDbLine
 10
-200
 20
-1100
 11
-200
 21
-1000
  0
LINE
  5
379
100
AcDbEntity
  8
grille2
  6
ByLayer
 62
  256
370
   -1
100
AcDbLine
 10
-300
 20
-1200
 11
-200
 21
-1200
  0
LINE
  5
37A
100
AcDbEntity
  8
grille2
  6
ByLayer
 62
  256
370
   -1
100
AcDbLine
 10
-200
 20
-1200
 11
-200
 21
-1100
  0
LINE
  5
37B
100
AcDbEntity
  8
grille2
  6
ByLayer
 62
  256
370
   -1
100
AcDbLine
 10
-300
 20
-1300
 11
-200
 21
-1300
  0
LINE
  5
37C
100
AcDbEntity
  8
grille2
  6
ByLayer
 62
  256
370
   -1
100
AcDbLine
 10
-200
 20
-1300
 11
-200
 21
-1200
  0
LINE
  5
37D
100
AcDbEntity
  8
grille2
  6
ByLayer
 62
  256
370
   -1
100
AcDbLine
 10
-300
 20
-1400
 11
-200
 21
-1400
  0
LINE
  5
37E
100
AcDbEntity
  8
grille2
  6
ByLayer
 62
  256
370
   -1
100
AcDbLine
 10
-200
 20
-1400
 11
-200
 21
-1300
  0
LINE
  5
37F
100
AcDbEntity
  8
grille2
  6
ByLayer
 62
  256
370
   -1
100
AcDbLine
 10
-300
 20
-1500
 11
-200
 21
-1500
  0
LINE
  5
380
100
AcDbEntity
  8
grille2
  6
ByLayer
 62
  256
370
   -1
100
AcDbLine
 10
-200
 20
-1500
 11
-200
 21
-1400
  0
LINE
  5
381
100
AcDbEntity
  8
grille2
  6
ByLayer
 62
  256
370
   -1
100
AcDbLine
 10
-300
 20
-1600
 11
-200
 21
-1600
  0
LINE
  5
382
100
AcDbEntity
  8
grille2
  6
ByLayer
 62
  256
370
   -1
100
AcDbLine
 10
-200
 20
-1600
 11
-200
 21
-1500
  0
LINE
  5
383
100
AcDbEntity
  8
grille2
  6
ByLayer
 62
  256
370
   -1
100
AcDbLine
 10
-300
 20
-1700
 11
-200
 21
-1700
  0
LINE
  5
384
100
AcDbEntity
  8
grille2
  6
ByLayer
 62
  256
370
   -1
100
AcDbLine
 10
-200
 20
-1700
 11
-200
 21
-1600
  0
LINE
  5
385
100
AcDbEntity
  8
grille2
  6
ByLayer
 62
  256
370
   -1
100
AcDbLine
 10
-300
 20
400
 11
-200
 21
400
  0
LINE
  5
386
100
AcDbEntity
  8
grille2
  6
ByLayer
 62
  256
370
   -1
100
AcDbLine
 10
-200
 20
300
 11
-100
 21
300
  0
LINE
  5
387
100
AcDbEntity
  8
grille2
  6
ByLayer
 62
  256
370
   -1
100
AcDbLine
 10
-100
 20
300
 11
-100
 21
400
  0
LINE
  5
388
100
AcDbEntity
  8
grille2
  6
ByLayer
 62
  256
370
   -1
100
AcDbLine
 10
-200
 20
200
 11
-100
 21
200
  0
LINE
  5
389
100
AcDbEntity
  8
grille2
  6
ByLayer
 62
  256
370
   -1
100
AcDbLine
 10
-100
 20
200
 11
-100
 21
300
  0
LINE
  5
38A
100
AcDbEntity
  8
grille2
  6
ByLayer
 62
  256
370
   -1
100
AcDbLine
 10
-200
 20
100
 11
-100
 21
100
  0
LINE
  5
38B
100
AcDbEntity
  8
grille2
  6
ByLayer
 62
  256
370
   -1
100
AcDbLine
 10
-100
 20
100
 11
-100
 21
200
  0
LINE
  5
38C
100
AcDbEntity
  8
grille2
  6
ByLayer
 62
  256
370
   -1
100
AcDbLine
 10
-200
 20
0
 11
-100
 21
0
  0
LINE
  5
38D
100
AcDbEntity
  8
grille2
  6
ByLayer
 62
  256
370
   -1
100
AcDbLine
 10
-100
 20
0
 11
-100
 21
100
  0
LINE
  5
38E
100
AcDbEntity
  8
grille2
  6
ByLayer
 62
  256
370
   -1
100
AcDbLine
 10
-200
 20
-100
 11
-100
 21
-100
  0
LINE
  5
38F
100
AcDbEntity
  8
grille2
  6
ByLayer
 62
  256
370
   -1
100
AcDbLine
 10
-100
 20
-100
 11
-100
 21
0
  0
LINE
  5
390
100
AcDbEntity
  8
grille2
  6
ByLayer
 62
  256
370
   -1
100
AcDbLine
 10
-200
 20
-200
 11
-100
 21
-200
  0
LINE
  5
391
100
AcDbEntity
  8
grille2
  6
ByLayer
 62
  256
370
   -1
100
AcDbLine
 10
-100
 20
-200
 11
-100
 21
-100
  0
LINE
  5
392
100
AcDbEntity
  8
grille2
  6
ByLayer
 62
  256
370
   -1
100
AcDbLine
 10
-200
 20
-300
 11
-100
 21
-300
  0
LINE
  5
393
100
AcDbEntity
  8
grille2
  6
ByLayer
 62
  256
370
   -1
100
AcDbLine
 10
-100
 20
-300
 11
-100
 21
-200
  0
LINE
  5
394
100
AcDbEntity
  8
grille2
  6
ByLayer
 62
  256
370
   -1
100
AcDbLine
 10
-200
 20
-400
 11
-100
 21
-400
  0
LINE
  5
395
100
AcDbEntity
  8
grille2
  6
ByLayer
 62
  256
370
   -1
100
AcDbLine
 10
-100
 20
-400
 11
-100
 21
-300
  0
LINE
  5
396
100
AcDbEntity
  8
grille2
  6
ByLayer
 62
  256
370
   -1
100
AcDbLine
 10
-200
 20
-500
 11
-100
 21
-500
  0
LINE
  5
397
100
AcDbEntity
  8
grille2
  6
ByLayer
 62
  256
370
   -1
100
AcDbLine
 10
-100
 20
-500
 11
-100
 21
-400
  0
LINE
  5
398
100
AcDbEntity
  8
grille2
  6
ByLayer
 62
  256
370
   -1
100
AcDbLine
 10
-200
 20
-600
 11
-100
 21
-600
  0
LINE
  5
399
100
AcDbEntity
  8
grille2
  6
ByLayer
 62
  256
370
   -1
100
AcDbLine
 10
-100
 20
-600
 11
-100
 21
-500
  0
LINE
  5
39A
100
AcDbEntity
  8
grille2
  6
ByLayer
 62
  256
370
   -1
100
AcDbLine
 10
-200
 20
-700
 11
-100
 21
-700
  0
LINE
  5
39B
100
AcDbEntity
  8
grille2
  6
ByLayer
 62
  256
370
   -1
100
AcDbLine
 10
-100
 20
-700
 11
-100
 21
-600
  0
LINE
  5
39C
100
AcDbEntity
  8
grille2
  6
ByLayer
 62
  256
370
   -1
100
AcDbLine
 10
-200
 20
-800
 11
-100
 21
-800
  0
LINE
  5
39D
100
AcDbEntity
  8
grille2
  6
ByLayer
 62
  256
370
   -1
100
AcDbLine
 10
-100
 20
-800
 11
-100
 21
-700
  0
LINE
  5
39E
100
AcDbEntity
  8
grille2
  6
ByLayer
 62
  256
370
   -1
100
AcDbLine
 10
-200
 20
-900
 11
-100
 21
-900
  0
LINE
  5
39F
100
AcDbEntity
  8
grille2
  6
ByLayer
 62
  256
370
   -1
100
AcDbLine
 10
-100
 20
-900
 11
-100
 21
-800
  0
LINE
  5
3A0
100
AcDbEntity
  8
grille2
  6
ByLayer
 62
  256
370
   -1
100
AcDbLine
 10
-200
 20
-1000
 11
-100
 21
-1000
  0
LINE
  5
3A1
100
AcDbEntity
  8
grille2
  6
ByLayer
 62
  256
370
   -1
100
AcDbLine
 10
-100
 20
-1000
 11
-100
 21
-900
  0
LINE
  5
3A2
100
AcDbEntity
  8
grille2
  6
ByLayer
 62
  256
370
   -1
100
AcDbLine
 10
-200
 20
-1100
 11
-100
 21
-1100
  0
LINE
  5
3A3
100
AcDbEntity
  8
grille2
  6
ByLayer
 62
  256
370
   -1
100
AcDbLine
 10
-100
 20
-1100
 11
-100
 21
-1000
  0
LINE
  5
3A4
100
AcDbEntity
  8
grille2
  6
ByLayer
 62
  256
370
   -1
100
AcDbLine
 10
-200
 20
-1200
 11
-100
 21
-1200
  0
LINE
  5
3A5
100
AcDbEntity
  8
grille2
  6
ByLayer
 62
  256
370
   -1
100
AcDbLine
 10
-100
 20
-1200
 11
-100
 21
-1100
  0
LINE
  5
3A6
100
AcDbEntity
  8
grille2
  6
ByLayer
 62
  256
370
   -1
100
AcDbLine
 10
-200
 20
-1300
 11
-100
 21
-1300
  0
LINE
  5
3A7
100
AcDbEntity
  8
grille2
  6
ByLayer
 62
  256
370
   -1
100
AcDbLine
 10
-100
 20
-1300
 11
-100
 21
-1200
  0
LINE
  5
3A8
100
AcDbEntity
  8
grille2
  6
ByLayer
 62
  256
370
   -1
100
AcDbLine
 10
-200
 20
-1400
 11
-100
 21
-1400
  0
LINE
  5
3A9
100
AcDbEntity
  8
grille2
  6
ByLayer
 62
  256
370
   -1
100
AcDbLine
 10
-100
 20
-1400
 11
-100
 21
-1300
  0
LINE
  5
3AA
100
AcDbEntity
  8
grille2
  6
ByLayer
 62
  256
370
   -1
100
AcDbLine
 10
-200
 20
-1500
 11
-100
 21
-1500
  0
LINE
  5
3AB
100
AcDbEntity
  8
grille2
  6
ByLayer
 62
  256
370
   -1
100
AcDbLine
 10
-100
 20
-1500
 11
-100
 21
-1400
  0
LINE
  5
3AC
100
AcDbEntity
  8
grille2
  6
ByLayer
 62
  256
370
   -1
100
AcDbLine
 10
-200
 20
-1600
 11
-100
 21
-1600
  0
LINE
  5
3AD
100
AcDbEntity
  8
grille2
  6
ByLayer
 62
  256
370
   -1
100
AcDbLine
 10
-100
 20
-1600
 11
-100
 21
-1500
  0
LINE
  5
3AE
100
AcDbEntity
  8
grille2
  6
ByLayer
 62
  256
370
   -1
100
AcDbLine
 10
-200
 20
-1700
 11
-100
 21
-1700
  0
LINE
  5
3AF
100
AcDbEntity
  8
grille2
  6
ByLayer
 62
  256
370
   -1
100
AcDbLine
 10
-100
 20
-1700
 11
-100
 21
-1600
  0
LINE
  5
3B0
100
AcDbEntity
  8
grille2
  6
ByLayer
 62
  256
370
   -1
100
AcDbLine
 10
-200
 20
400
 11
-100
 21
400
  0
LINE
  5
3B1
100
AcDbEntity
  8
grille2
  6
ByLayer
 62
  256
370
   -1
100
AcDbLine
 10
-100
 20
300
 11
0
 21
300
  0
LINE
  5
3B2
100
AcDbEntity
  8
grille2
  6
ByLayer
 62
  256
370
   -1
100
AcDbLine
 10
0
 20
300
 11
0
 21
400
  0
LINE
  5
3B3
100
AcDbEntity
  8
grille2
  6
ByLayer
 62
  256
370
   -1
100
AcDbLine
 10
-100
 20
200
 11
0
 21
200
  0
LINE
  5
3B4
100
AcDbEntity
  8
grille2
  6
ByLayer
 62
  256
370
   -1
100
AcDbLine
 10
0
 20
200
 11
0
 21
300
  0
LINE
  5
3B5
100
AcDbEntity
  8
grille2
  6
ByLayer
 62
  256
370
   -1
100
AcDbLine
 10
-100
 20
100
 11
0
 21
100
  0
LINE
  5
3B6
100
AcDbEntity
  8
grille2
  6
ByLayer
 62
  256
370
   -1
100
AcDbLine
 10
0
 20
100
 11
0
 21
200
  0
LINE
  5
3B7
100
AcDbEntity
  8
grille2
  6
ByLayer
 62
  256
370
   -1
100
AcDbLine
 10
-100
 20
0
 11
0
 21
0
  0
LINE
  5
3B8
100
AcDbEntity
  8
grille2
  6
ByLayer
 62
  256
370
   -1
100
AcDbLine
 10
0
 20
0
 11
0
 21
100
  0
LINE
  5
3B9
100
AcDbEntity
  8
grille2
  6
ByLayer
 62
  256
370
   -1
100
AcDbLine
 10
-100
 20
-100
 11
0
 21
-100
  0
LINE
  5
3BA
100
AcDbEntity
  8
grille2
  6
ByLayer
 62
  256
370
   -1
100
AcDbLine
 10
0
 20
-100
 11
0
 21
0
  0
LINE
  5
3BB
100
AcDbEntity
  8
grille2
  6
ByLayer
 62
  256
370
   -1
100
AcDbLine
 10
-100
 20
-200
 11
0
 21
-200
  0
LINE
  5
3BC
100
AcDbEntity
  8
grille2
  6
ByLayer
 62
  256
370
   -1
100
AcDbLine
 10
0
 20
-200
 11
0
 21
-100
  0
LINE
  5
3BD
100
AcDbEntity
  8
grille2
  6
ByLayer
 62
  256
370
   -1
100
AcDbLine
 10
-100
 20
-300
 11
0
 21
-300
  0
LINE
  5
3BE
100
AcDbEntity
  8
grille2
  6
ByLayer
 62
  256
370
   -1
100
AcDbLine
 10
0
 20
-300
 11
0
 21
-200
  0
LINE
  5
3BF
100
AcDbEntity
  8
grille2
  6
ByLayer
 62
  256
370
   -1
100
AcDbLine
 10
-100
 20
-400
 11
0
 21
-400
  0
LINE
  5
3C0
100
AcDbEntity
  8
grille2
  6
ByLayer
 62
  256
370
   -1
100
AcDbLine
 10
0
 20
-400
 11
0
 21
-300
  0
LINE
  5
3C1
100
AcDbEntity
  8
grille2
  6
ByLayer
 62
  256
370
   -1
100
AcDbLine
 10
-100
 20
-500
 11
0
 21
-500
  0
LINE
  5
3C2
100
AcDbEntity
  8
grille2
  6
ByLayer
 62
  256
370
   -1
100
AcDbLine
 10
0
 20
-500
 11
0
 21
-400
  0
LINE
  5
3C3
100
AcDbEntity
  8
grille2
  6
ByLayer
 62
  256
370
   -1
100
AcDbLine
 10
-100
 20
-600
 11
0
 21
-600
  0
LINE
  5
3C4
100
AcDbEntity
  8
grille2
  6
ByLayer
 62
  256
370
   -1
100
AcDbLine
 10
0
 20
-600
 11
0
 21
-500
  0
LINE
  5
3C5
100
AcDbEntity
  8
grille2
  6
ByLayer
 62
  256
370
   -1
100
AcDbLine
 10
-100
 20
-700
 11
0
 21
-700
  0
LINE
  5
3C6
100
AcDbEntity
  8
grille2
  6
ByLayer
 62
  256
370
   -1
100
AcDbLine
 10
0
 20
-700
 11
0
 21
-600
  0
LINE
  5
3C7
100
AcDbEntity
  8
grille2
  6
ByLayer
 62
  256
370
   -1
100
AcDbLine
 10
-100
 20
-800
 11
0
 21
-800
  0
LINE
  5
3C8
100
AcDbEntity
  8
grille2
  6
ByLayer
 62
  256
370
   -1
100
AcDbLine
 10
0
 20
-800
 11
0
 21
-700
  0
LINE
  5
3C9
100
AcDbEntity
  8
grille2
  6
ByLayer
 62
  256
370
   -1
100
AcDbLine
 10
-100
 20
-900
 11
0
 21
-900
  0
LINE
  5
3CA
100
AcDbEntity
  8
grille2
  6
ByLayer
 62
  256
370
   -1
100
AcDbLine
 10
0
 20
-900
 11
0
 21
-800
  0
LINE
  5
3CB
100
AcDbEntity
  8
grille2
  6
ByLayer
 62
  256
370
   -1
100
AcDbLine
 10
-100
 20
-1000
 11
0
 21
-1000
  0
LINE
  5
3CC
100
AcDbEntity
  8
grille2
  6
ByLayer
 62
  256
370
   -1
100
AcDbLine
 10
0
 20
-1000
 11
0
 21
-900
  0
LINE
  5
3CD
100
AcDbEntity
  8
grille2
  6
ByLayer
 62
  256
370
   -1
100
AcDbLine
 10
-100
 20
-1100
 11
0
 21
-1100
  0
LINE
  5
3CE
100
AcDbEntity
  8
grille2
  6
ByLayer
 62
  256
370
   -1
100
AcDbLine
 10
0
 20
-1100
 11
0
 21
-1000
  0
LINE
  5
3CF
100
AcDbEntity
  8
grille2
  6
ByLayer
 62
  256
370
   -1
100
AcDbLine
 10
-100
 20
-1200
 11
0
 21
-1200
  0
LINE
  5
3D0
100
AcDbEntity
  8
grille2
  6
ByLayer
 62
  256
370
   -1
100
AcDbLine
 10
0
 20
-1200
 11
0
 21
-1100
  0
LINE
  5
3D1
100
AcDbEntity
  8
grille2
  6
ByLayer
 62
  256
370
   -1
100
AcDbLine
 10
-100
 20
-1300
 11
0
 21
-1300
  0
LINE
  5
3D2
100
AcDbEntity
  8
grille2
  6
ByLayer
 62
  256
370
   -1
100
AcDbLine
 10
0
 20
-1300
 11
0
 21
-1200
  0
LINE
  5
3D3
100
AcDbEntity
  8
grille2
  6
ByLayer
 62
  256
370
   -1
100
AcDbLine
 10
-100
 20
-1400
 11
0
 21
-1400
  0
LINE
  5
3D4
100
AcDbEntity
  8
grille2
  6
ByLayer
 62
  256
370
   -1
100
AcDbLine
 10
0
 20
-1400
 11
0
 21
-1300
  0
LINE
  5
3D5
100
AcDbEntity
  8
grille2
  6
ByLayer
 62
  256
370
   -1
100
AcDbLine
 10
-100
 20
-1500
 11
0
 21
-1500
  0
LINE
  5
3D6
100
AcDbEntity
  8
grille2
  6
ByLayer
 62
  256
370
   -1
100
AcDbLine
 10
0
 20
-1500
 11
0
 21
-1400
  0
LINE
  5
3D7
100
AcDbEntity
  8
grille2
  6
ByLayer
 62
  256
370
   -1
100
AcDbLine
 10
-100
 20
-1600
 11
0
 21
-1600
  0
LINE
  5
3D8
100
AcDbEntity
  8
grille2
  6
ByLayer
 62
  256
370
   -1
100
AcDbLine
 10
0
 20
-1600
 11
0
 21
-1500
  0
LINE
  5
3D9
100
AcDbEntity
  8
grille2
  6
ByLayer
 62
  256
370
   -1
100
AcDbLine
 10
-100
 20
-1700
 11
0
 21
-1700
  0
LINE
  5
3DA
100
AcDbEntity
  8
grille2
  6
ByLayer
 62
  256
370
   -1
100
AcDbLine
 10
0
 20
-1700
 11
0
 21
-1600
  0
LINE
  5
3DB
100
AcDbEntity
  8
grille2
  6
ByLayer
 62
  256
370
   -1
100
AcDbLine
 10
-100
 20
400
 11
0
 21
400
  0
LINE
  5
3DC
100
AcDbEntity
  8
grille2
  6
ByLayer
 62
  256
370
   -1
100
AcDbLine
 10
0
 20
300
 11
100
 21
300
  0
LINE
  5
3DD
100
AcDbEntity
  8
grille2
  6
ByLayer
 62
  256
370
   -1
100
AcDbLine
 10
100
 20
300
 11
100
 21
400
  0
LINE
  5
3DE
100
AcDbEntity
  8
grille2
  6
ByLayer
 62
  256
370
   -1
100
AcDbLine
 10
0
 20
200
 11
100
 21
200
  0
LINE
  5
3DF
100
AcDbEntity
  8
grille2
  6
ByLayer
 62
  256
370
   -1
100
AcDbLine
 10
100
 20
200
 11
100
 21
300
  0
LINE
  5
3E0
100
AcDbEntity
  8
grille2
  6
ByLayer
 62
  256
370
   -1
100
AcDbLine
 10
0
 20
100
 11
100
 21
100
  0
LINE
  5
3E1
100
AcDbEntity
  8
grille2
  6
ByLayer
 62
  256
370
   -1
100
AcDbLine
 10
100
 20
100
 11
100
 21
200
  0
LINE
  5
3E2
100
AcDbEntity
  8
grille2
  6
ByLayer
 62
  256
370
   -1
100
AcDbLine
 10
0
 20
0
 11
100
 21
0
  0
LINE
  5
3E3
100
AcDbEntity
  8
grille2
  6
ByLayer
 62
  256
370
   -1
100
AcDbLine
 10
100
 20
0
 11
100
 21
100
  0
LINE
  5
3E4
100
AcDbEntity
  8
grille2
  6
ByLayer
 62
  256
370
   -1
100
AcDbLine
 10
0
 20
-100
 11
100
 21
-100
  0
LINE
  5
3E5
100
AcDbEntity
  8
grille2
  6
ByLayer
 62
  256
370
   -1
100
AcDbLine
 10
100
 20
-100
 11
100
 21
0
  0
LINE
  5
3E6
100
AcDbEntity
  8
grille2
  6
ByLayer
 62
  256
370
   -1
100
AcDbLine
 10
0
 20
-200
 11
100
 21
-200
  0
LINE
  5
3E7
100
AcDbEntity
  8
grille2
  6
ByLayer
 62
  256
370
   -1
100
AcDbLine
 10
100
 20
-200
 11
100
 21
-100
  0
LINE
  5
3E8
100
AcDbEntity
  8
grille2
  6
ByLayer
 62
  256
370
   -1
100
AcDbLine
 10
0
 20
-300
 11
100
 21
-300
  0
LINE
  5
3E9
100
AcDbEntity
  8
grille2
  6
ByLayer
 62
  256
370
   -1
100
AcDbLine
 10
100
 20
-300
 11
100
 21
-200
  0
LINE
  5
3EA
100
AcDbEntity
  8
grille2
  6
ByLayer
 62
  256
370
   -1
100
AcDbLine
 10
0
 20
-400
 11
100
 21
-400
  0
LINE
  5
3EB
100
AcDbEntity
  8
grille2
  6
ByLayer
 62
  256
370
   -1
100
AcDbLine
 10
100
 20
-400
 11
100
 21
-300
  0
LINE
  5
3EC
100
AcDbEntity
  8
grille2
  6
ByLayer
 62
  256
370
   -1
100
AcDbLine
 10
0
 20
-500
 11
100
 21
-500
  0
LINE
  5
3ED
100
AcDbEntity
  8
grille2
  6
ByLayer
 62
  256
370
   -1
100
AcDbLine
 10
100
 20
-500
 11
100
 21
-400
  0
LINE
  5
3EE
100
AcDbEntity
  8
grille2
  6
ByLayer
 62
  256
370
   -1
100
AcDbLine
 10
0
 20
-600
 11
100
 21
-600
  0
LINE
  5
3EF
100
AcDbEntity
  8
grille2
  6
ByLayer
 62
  256
370
   -1
100
AcDbLine
 10
100
 20
-600
 11
100
 21
-500
  0
LINE
  5
3F0
100
AcDbEntity
  8
grille2
  6
ByLayer
 62
  256
370
   -1
100
AcDbLine
 10
0
 20
-700
 11
100
 21
-700
  0
LINE
  5
3F1
100
AcDbEntity
  8
grille2
  6
ByLayer
 62
  256
370
   -1
100
AcDbLine
 10
100
 20
-700
 11
100
 21
-600
  0
LINE
  5
3F2
100
AcDbEntity
  8
grille2
  6
ByLayer
 62
  256
370
   -1
100
AcDbLine
 10
0
 20
-800
 11
100
 21
-800
  0
LINE
  5
3F3
100
AcDbEntity
  8
grille2
  6
ByLayer
 62
  256
370
   -1
100
AcDbLine
 10
100
 20
-800
 11
100
 21
-700
  0
LINE
  5
3F4
100
AcDbEntity
  8
grille2
  6
ByLayer
 62
  256
370
   -1
100
AcDbLine
 10
0
 20
-900
 11
100
 21
-900
  0
LINE
  5
3F5
100
AcDbEntity
  8
grille2
  6
ByLayer
 62
  256
370
   -1
100
AcDbLine
 10
100
 20
-900
 11
100
 21
-800
  0
LINE
  5
3F6
100
AcDbEntity
  8
grille2
  6
ByLayer
 62
  256
370
   -1
100
AcDbLine
 10
0
 20
-1000
 11
100
 21
-1000
  0
LINE
  5
3F7
100
AcDbEntity
  8
grille2
  6
ByLayer
 62
  256
370
   -1
100
AcDbLine
 10
100
 20
-1000
 11
100
 21
-900
  0
LINE
  5
3F8
100
AcDbEntity
  8
grille2
  6
ByLayer
 62
  256
370
   -1
100
AcDbLine
 10
0
 20
-1100
 11
100
 21
-1100
  0
LINE
  5
3F9
100
AcDbEntity
  8
grille2
  6
ByLayer
 62
  256
370
   -1
100
AcDbLine
 10
100
 20
-1100
 11
100
 21
-1000
  0
LINE
  5
3FA
100
AcDbEntity
  8
grille2
  6
ByLayer
 62
  256
370
   -1
100
AcDbLine
 10
0
 20
-1200
 11
100
 21
-1200
  0
LINE
  5
3FB
100
AcDbEntity
  8
grille2
  6
ByLayer
 62
  256
370
   -1
100
AcDbLine
 10
100
 20
-1200
 11
100
 21
-1100
  0
LINE
  5
3FC
100
AcDbEntity
  8
grille2
  6
ByLayer
 62
  256
370
   -1
100
AcDbLine
 10
0
 20
-1300
 11
100
 21
-1300
  0
LINE
  5
3FD
100
AcDbEntity
  8
grille2
  6
ByLayer
 62
  256
370
   -1
100
AcDbLine
 10
100
 20
-1300
 11
100
 21
-1200
  0
LINE
  5
3FE
100
AcDbEntity
  8
grille2
  6
ByLayer
 62
  256
370
   -1
100
AcDbLine
 10
0
 20
-1400
 11
100
 21
-1400
  0
LINE
  5
3FF
100
AcDbEntity
  8
grille2
  6
ByLayer
 62
  256
370
   -1
100
AcDbLine
 10
100
 20
-1400
 11
100
 21
-1300
  0
LINE
  5
400
100
AcDbEntity
  8
grille2
  6
ByLayer
 62
  256
370
   -1
100
AcDbLine
 10
0
 20
-1500
 11
100
 21
-1500
  0
LINE
  5
401
100
AcDbEntity
  8
grille2
  6
ByLayer
 62
  256
370
   -1
100
AcDbLine
 10
100
 20
-1500
 11
100
 21
-1400
  0
LINE
  5
402
100
AcDbEntity
  8
grille2
  6
ByLayer
 62
  256
370
   -1
100
AcDbLine
 10
0
 20
-1600
 11
100
 21
-1600
  0
LINE
  5
403
100
AcDbEntity
  8
grille2
  6
ByLayer
 62
  256
370
   -1
100
AcDbLine
 10
100
 20
-1600
 11
100
 21
-1500
  0
LINE
  5
404
100
AcDbEntity
  8
grille2
  6
ByLayer
 62
  256
370
   -1
100
AcDbLine
 10
0
 20
-1700
 11
100
 21
-1700
  0
LINE
  5
405
100
AcDbEntity
  8
grille2
  6
ByLayer
 62
  256
370
   -1
100
AcDbLine
 10
100
 20
-1700
 11
100
 21
-1600
  0
LINE
  5
406
100
AcDbEntity
  8
grille2
  6
ByLayer
 62
  256
370
   -1
100
AcDbLine
 10
0
 20
400
 11
100
 21
400
  0
LINE
  5
407
100
AcDbEntity
  8
grille2
  6
ByLayer
 62
  256
370
   -1
100
AcDbLine
 10
100
 20
300
 11
200
 21
300
  0
LINE
  5
408
100
AcDbEntity
  8
grille2
  6
ByLayer
 62
  256
370
   -1
100
AcDbLine
 10
200
 20
300
 11
200
 21
400
  0
LINE
  5
409
100
AcDbEntity
  8
grille2
  6
ByLayer
 62
  256
370
   -1
100
AcDbLine
 10
100
 20
200
 11
200
 21
200
  0
LINE
  5
40A
100
AcDbEntity
  8
grille2
  6
ByLayer
 62
  256
370
   -1
100
AcDbLine
 10
200
 20
200
 11
200
 21
300
  0
LINE
  5
40B
100
AcDbEntity
  8
grille2
  6
ByLayer
 62
  256
370
   -1
100
AcDbLine
 10
100
 20
100
 11
200
 21
100
  0
LINE
  5
40C
100
AcDbEntity
  8
grille2
  6
ByLayer
 62
  256
370
   -1
100
AcDbLine
 10
200
 20
100
 11
200
 21
200
  0
LINE
  5
40D
100
AcDbEntity
  8
grille2
  6
ByLayer
 62
  256
370
   -1
100
AcDbLine
 10
100
 20
0
 11
200
 21
0
  0
LINE
  5
40E
100
AcDbEntity
  8
grille2
  6
ByLayer
 62
  256
370
   -1
100
AcDbLine
 10
200
 20
0
 11
200
 21
100
  0
LINE
  5
40F
100
AcDbEntity
  8
grille2
  6
ByLayer
 62
  256
370
   -1
100
AcDbLine
 10
100
 20
-100
 11
200
 21
-100
  0
LINE
  5
410
100
AcDbEntity
  8
grille2
  6
ByLayer
 62
  256
370
   -1
100
AcDbLine
 10
200
 20
-100
 11
200
 21
0
  0
LINE
  5
411
100
AcDbEntity
  8
grille2
  6
ByLayer
 62
  256
370
   -1
100
AcDbLine
 10
100
 20
-200
 11
200
 21
-200
  0
LINE
  5
412
100
AcDbEntity
  8
grille2
  6
ByLayer
 62
  256
370
   -1
100
AcDbLine
 10
200
 20
-200
 11
200
 21
-100
  0
LINE
  5
413
100
AcDbEntity
  8
grille2
  6
ByLayer
 62
  256
370
   -1
100
AcDbLine
 10
100
 20
-300
 11
200
 21
-300
  0
LINE
  5
414
100
AcDbEntity
  8
grille2
  6
ByLayer
 62
  256
370
   -1
100
AcDbLine
 10
200
 20
-300
 11
200
 21
-200
  0
LINE
  5
415
100
AcDbEntity
  8
grille2
  6
ByLayer
 62
  256
370
   -1
100
AcDbLine
 10
100
 20
-400
 11
200
 21
-400
  0
LINE
  5
416
100
AcDbEntity
  8
grille2
  6
ByLayer
 62
  256
370
   -1
100
AcDbLine
 10
200
 20
-400
 11
200
 21
-300
  0
LINE
  5
417
100
AcDbEntity
  8
grille2
  6
ByLayer
 62
  256
370
   -1
100
AcDbLine
 10
100
 20
-500
 11
200
 21
-500
  0
LINE
  5
418
100
AcDbEntity
  8
grille2
  6
ByLayer
 62
  256
370
   -1
100
AcDbLine
 10
200
 20
-500
 11
200
 21
-400
  0
LINE
  5
419
100
AcDbEntity
  8
grille2
  6
ByLayer
 62
  256
370
   -1
100
AcDbLine
 10
100
 20
-600
 11
200
 21
-600
  0
LINE
  5
41A
100
AcDbEntity
  8
grille2
  6
ByLayer
 62
  256
370
   -1
100
AcDbLine
 10
200
 20
-600
 11
200
 21
-500
  0
LINE
  5
41B
100
AcDbEntity
  8
grille2
  6
ByLayer
 62
  256
370
   -1
100
AcDbLine
 10
100
 20
-700
 11
200
 21
-700
  0
LINE
  5
41C
100
AcDbEntity
  8
grille2
  6
ByLayer
 62
  256
370
   -1
100
AcDbLine
 10
200
 20
-700
 11
200
 21
-600
  0
LINE
  5
41D
100
AcDbEntity
  8
grille2
  6
ByLayer
 62
  256
370
   -1
100
AcDbLine
 10
100
 20
-800
 11
200
 21
-800
  0
LINE
  5
41E
100
AcDbEntity
  8
grille2
  6
ByLayer
 62
  256
370
   -1
100
AcDbLine
 10
200
 20
-800
 11
200
 21
-700
  0
LINE
  5
41F
100
AcDbEntity
  8
grille2
  6
ByLayer
 62
  256
370
   -1
100
AcDbLine
 10
100
 20
-900
 11
200
 21
-900
  0
LINE
  5
420
100
AcDbEntity
  8
grille2
  6
ByLayer
 62
  256
370
   -1
100
AcDbLine
 10
200
 20
-900
 11
200
 21
-800
  0
LINE
  5
421
100
AcDbEntity
  8
grille2
  6
ByLayer
 62
  256
370
   -1
100
AcDbLine
 10
100
 20
-1000
 11
200
 21
-1000
  0
LINE
  5
422
100
AcDbEntity
  8
grille2
  6
ByLayer
 62
  256
370
   -1
100
AcDbLine
 10
200
 20
-1000
 11
200
 21
-900
  0
LINE
  5
423
100
AcDbEntity
  8
grille2
  6
ByLayer
 62
  256
370
   -1
100
AcDbLine
 10
100
 20
-1100
 11
200
 21
-1100
  0
LINE
  5
424
100
AcDbEntity
  8
grille2
  6
ByLayer
 62
  256
370
   -1
100
AcDbLine
 10
200
 20
-1100
 11
200
 21
-1000
  0
LINE
  5
425
100
AcDbEntity
  8
grille2
  6
ByLayer
 62
  256
370
   -1
100
AcDbLine
 10
100
 20
-1200
 11
200
 21
-1200
  0
LINE
  5
426
100
AcDbEntity
  8
grille2
  6
ByLayer
 62
  256
370
   -1
100
AcDbLine
 10
200
 20
-1200
 11
200
 21
-1100
  0
LINE
  5
427
100
AcDbEntity
  8
grille2
  6
ByLayer
 62
  256
370
   -1
100
AcDbLine
 10
100
 20
-1300
 11
200
 21
-1300
  0
LINE
  5
428
100
AcDbEntity
  8
grille2
  6
ByLayer
 62
  256
370
   -1
100
AcDbLine
 10
200
 20
-1300
 11
200
 21
-1200
  0
LINE
  5
429
100
AcDbEntity
  8
grille2
  6
ByLayer
 62
  256
370
   -1
100
AcDbLine
 10
100
 20
-1400
 11
200
 21
-1400
  0
LINE
  5
42A
100
AcDbEntity
  8
grille2
  6
ByLayer
 62
  256
370
   -1
100
AcDbLine
 10
200
 20
-1400
 11
200
 21
-1300
  0
LINE
  5
42B
100
AcDbEntity
  8
grille2
  6
ByLayer
 62
  256
370
   -1
100
AcDbLine
 10
100
 20
-1500
 11
200
 21
-1500
  0
LINE
  5
42C
100
AcDbEntity
  8
grille2
  6
ByLayer
 62
  256
370
   -1
100
AcDbLine
 10
200
 20
-1500
 11
200
 21
-1400
  0
LINE
  5
42D
100
AcDbEntity
  8
grille2
  6
ByLayer
 62
  256
370
   -1
100
AcDbLine
 10
100
 20
-1600
 11
200
 21
-1600
  0
LINE
  5
42E
100
AcDbEntity
  8
grille2
  6
ByLayer
 62
  256
370
   -1
100
AcDbLine
 10
200
 20
-1600
 11
200
 21
-1500
  0
LINE
  5
42F
100
AcDbEntity
  8
grille2
  6
ByLayer
 62
  256
370
   -1
100
AcDbLine
 10
100
 20
-1700
 11
200
 21
-1700
  0
LINE
  5
430
100
AcDbEntity
  8
grille2
  6
ByLayer
 62
  256
370
   -1
100
AcDbLine
 10
200
 20
-1700
 11
200
 21
-1600
  0
LINE
  5
431
100
AcDbEntity
  8
grille2
  6
ByLayer
 62
  256
370
   -1
100
AcDbLine
 10
100
 20
400
 11
200
 21
400
  0
LINE
  5
432
100
AcDbEntity
  8
grille2
  6
ByLayer
 62
  256
370
   -1
100
AcDbLine
 10
200
 20
300
 11
300
 21
300
  0
LINE
  5
433
100
AcDbEntity
  8
grille2
  6
ByLayer
 62
  256
370
   -1
100
AcDbLine
 10
300
 20
300
 11
300
 21
400
  0
LINE
  5
434
100
AcDbEntity
  8
grille2
  6
ByLayer
 62
  256
370
   -1
100
AcDbLine
 10
200
 20
200
 11
300
 21
200
  0
LINE
  5
435
100
AcDbEntity
  8
grille2
  6
ByLayer
 62
  256
370
   -1
100
AcDbLine
 10
300
 20
200
 11
300
 21
300
  0
LINE
  5
436
100
AcDbEntity
  8
grille2
  6
ByLayer
 62
  256
370
   -1
100
AcDbLine
 10
200
 20
100
 11
300
 21
100
  0
LINE
  5
437
100
AcDbEntity
  8
grille2
  6
ByLayer
 62
  256
370
   -1
100
AcDbLine
 10
300
 20
100
 11
300
 21
200
  0
LINE
  5
438
100
AcDbEntity
  8
grille2
  6
ByLayer
 62
  256
370
   -1
100
AcDbLine
 10
200
 20
0
 11
300
 21
0
  0
LINE
  5
439
100
AcDbEntity
  8
grille2
  6
ByLayer
 62
  256
370
   -1
100
AcDbLine
 10
300
 20
0
 11
300
 21
100
  0
LINE
  5
43A
100
AcDbEntity
  8
grille2
  6
ByLayer
 62
  256
370
   -1
100
AcDbLine
 10
200
 20
-100
 11
300
 21
-100
  0
LINE
  5
43B
100
AcDbEntity
  8
grille2
  6
ByLayer
 62
  256
370
   -1
100
AcDbLine
 10
300
 20
-100
 11
300
 21
0
  0
LINE
  5
43C
100
AcDbEntity
  8
grille2
  6
ByLayer
 62
  256
370
   -1
100
AcDbLine
 10
200
 20
-200
 11
300
 21
-200
  0
LINE
  5
43D
100
AcDbEntity
  8
grille2
  6
ByLayer
 62
  256
370
   -1
100
AcDbLine
 10
300
 20
-200
 11
300
 21
-100
  0
LINE
  5
43E
100
AcDbEntity
  8
grille2
  6
ByLayer
 62
  256
370
   -1
100
AcDbLine
 10
200
 20
-300
 11
300
 21
-300
  0
LINE
  5
43F
100
AcDbEntity
  8
grille2
  6
ByLayer
 62
  256
370
   -1
100
AcDbLine
 10
300
 20
-300
 11
300
 21
-200
  0
LINE
  5
440
100
AcDbEntity
  8
grille2
  6
ByLayer
 62
  256
370
   -1
100
AcDbLine
 10
200
 20
-400
 11
300
 21
-400
  0
LINE
  5
441
100
AcDbEntity
  8
grille2
  6
ByLayer
 62
  256
370
   -1
100
AcDbLine
 10
300
 20
-400
 11
300
 21
-300
  0
LINE
  5
442
100
AcDbEntity
  8
grille2
  6
ByLayer
 62
  256
370
   -1
100
AcDbLine
 10
200
 20
-500
 11
300
 21
-500
  0
LINE
  5
443
100
AcDbEntity
  8
grille2
  6
ByLayer
 62
  256
370
   -1
100
AcDbLine
 10
300
 20
-500
 11
300
 21
-400
  0
LINE
  5
444
100
AcDbEntity
  8
grille2
  6
ByLayer
 62
  256
370
   -1
100
AcDbLine
 10
200
 20
-600
 11
300
 21
-600
  0
LINE
  5
445
100
AcDbEntity
  8
grille2
  6
ByLayer
 62
  256
370
   -1
100
AcDbLine
 10
300
 20
-600
 11
300
 21
-500
  0
LINE
  5
446
100
AcDbEntity
  8
grille2
  6
ByLayer
 62
  256
370
   -1
100
AcDbLine
 10
200
 20
-700
 11
300
 21
-700
  0
LINE
  5
447
100
AcDbEntity
  8
grille2
  6
ByLayer
 62
  256
370
   -1
100
AcDbLine
 10
300
 20
-700
 11
300
 21
-600
  0
LINE
  5
448
100
AcDbEntity
  8
grille2
  6
ByLayer
 62
  256
370
   -1
100
AcDbLine
 10
200
 20
-800
 11
300
 21
-800
  0
LINE
  5
449
100
AcDbEntity
  8
grille2
  6
ByLayer
 62
  256
370
   -1
100
AcDbLine
 10
300
 20
-800
 11
300
 21
-700
  0
LINE
  5
44A
100
AcDbEntity
  8
grille2
  6
ByLayer
 62
  256
370
   -1
100
AcDbLine
 10
200
 20
-900
 11
300
 21
-900
  0
LINE
  5
44B
100
AcDbEntity
  8
grille2
  6
ByLayer
 62
  256
370
   -1
100
AcDbLine
 10
300
 20
-900
 11
300
 21
-800
  0
LINE
  5
44C
100
AcDbEntity
  8
grille2
  6
ByLayer
 62
  256
370
   -1
100
AcDbLine
 10
200
 20
-1000
 11
300
 21
-1000
  0
LINE
  5
44D
100
AcDbEntity
  8
grille2
  6
ByLayer
 62
  256
370
   -1
100
AcDbLine
 10
300
 20
-1000
 11
300
 21
-900
  0
LINE
  5
44E
100
AcDbEntity
  8
grille2
  6
ByLayer
 62
  256
370
   -1
100
AcDbLine
 10
200
 20
-1100
 11
300
 21
-1100
  0
LINE
  5
44F
100
AcDbEntity
  8
grille2
  6
ByLayer
 62
  256
370
   -1
100
AcDbLine
 10
300
 20
-1100
 11
300
 21
-1000
  0
LINE
  5
450
100
AcDbEntity
  8
grille2
  6
ByLayer
 62
  256
370
   -1
100
AcDbLine
 10
200
 20
-1200
 11
300
 21
-1200
  0
LINE
  5
451
100
AcDbEntity
  8
grille2
  6
ByLayer
 62
  256
370
   -1
100
AcDbLine
 10
300
 20
-1200
 11
300
 21
-1100
  0
LINE
  5
452
100
AcDbEntity
  8
grille2
  6
ByLayer
 62
  256
370
   -1
100
AcDbLine
 10
200
 20
-1300
 11
300
 21
-1300
  0
LINE
  5
453
100
AcDbEntity
  8
grille2
  6
ByLayer
 62
  256
370
   -1
100
AcDbLine
 10
300
 20
-1300
 11
300
 21
-1200
  0
LINE
  5
454
100
AcDbEntity
  8
grille2
  6
ByLayer
 62
  256
370
   -1
100
AcDbLine
 10
200
 20
-1400
 11
300
 21
-1400
  0
LINE
  5
455
100
AcDbEntity
  8
grille2
  6
ByLayer
 62
  256
370
   -1
100
AcDbLine
 10
300
 20
-1400
 11
300
 21
-1300
  0
LINE
  5
456
100
AcDbEntity
  8
grille2
  6
ByLayer
 62
  256
370
   -1
100
AcDbLine
 10
200
 20
-1500
 11
300
 21
-1500
  0
LINE
  5
457
100
AcDbEntity
  8
grille2
  6
ByLayer
 62
  256
370
   -1
100
AcDbLine
 10
300
 20
-1500
 11
300
 21
-1400
  0
LINE
  5
458
100
AcDbEntity
  8
grille2
  6
ByLayer
 62
  256
370
   -1
100
AcDbLine
 10
200
 20
-1600
 11
300
 21
-1600
  0
LINE
  5
459
100
AcDbEntity
  8
grille2
  6
ByLayer
 62
  256
370
   -1
100
AcDbLine
 10
300
 20
-1600
 11
300
 21
-1500
  0
LINE
  5
45A
100
AcDbEntity
  8
grille2
  6
ByLayer
 62
  256
370
   -1
100
AcDbLine
 10
200
 20
-1700
 11
300
 21
-1700
  0
LINE
  5
45B
100
AcDbEntity
  8
grille2
  6
ByLayer
 62
  256
370
   -1
100
AcDbLine
 10
300
 20
-1700
 11
300
 21
-1600
  0
LINE
  5
45C
100
AcDbEntity
  8
grille2
  6
ByLayer
 62
  256
370
   -1
100
AcDbLine
 10
200
 20
400
 11
300
 21
400
  0
LINE
  5
45D
100
AcDbEntity
  8
grille2
  6
ByLayer
 62
  256
370
   -1
100
AcDbLine
 10
300
 20
300
 11
400
 21
300
  0
LINE
  5
45E
100
AcDbEntity
  8
grille2
  6
ByLayer
 62
  256
370
   -1
100
AcDbLine
 10
400
 20
300
 11
400
 21
400
  0
LINE
  5
45F
100
AcDbEntity
  8
grille2
  6
ByLayer
 62
  256
370
   -1
100
AcDbLine
 10
300
 20
200
 11
400
 21
200
  0
LINE
  5
460
100
AcDbEntity
  8
grille2
  6
ByLayer
 62
  256
370
   -1
100
AcDbLine
 10
400
 20
200
 11
400
 21
300
  0
LINE
  5
461
100
AcDbEntity
  8
grille2
  6
ByLayer
 62
  256
370
   -1
100
AcDbLine
 10
300
 20
100
 11
400
 21
100
  0
LINE
  5
462
100
AcDbEntity
  8
grille2
  6
ByLayer
 62
  256
370
   -1
100
AcDbLine
 10
400
 20
100
 11
400
 21
200
  0
LINE
  5
463
100
AcDbEntity
  8
grille2
  6
ByLayer
 62
  256
370
   -1
100
AcDbLine
 10
300
 20
0
 11
400
 21
0
  0
LINE
  5
464
100
AcDbEntity
  8
grille2
  6
ByLayer
 62
  256
370
   -1
100
AcDbLine
 10
400
 20
0
 11
400
 21
100
  0
LINE
  5
465
100
AcDbEntity
  8
grille2
  6
ByLayer
 62
  256
370
   -1
100
AcDbLine
 10
300
 20
-100
 11
400
 21
-100
  0
LINE
  5
466
100
AcDbEntity
  8
grille2
  6
ByLayer
 62
  256
370
   -1
100
AcDbLine
 10
400
 20
-100
 11
400
 21
0
  0
LINE
  5
467
100
AcDbEntity
  8
grille2
  6
ByLayer
 62
  256
370
   -1
100
AcDbLine
 10
300
 20
-200
 11
400
 21
-200
  0
LINE
  5
468
100
AcDbEntity
  8
grille2
  6
ByLayer
 62
  256
370
   -1
100
AcDbLine
 10
400
 20
-200
 11
400
 21
-100
  0
LINE
  5
469
100
AcDbEntity
  8
grille2
  6
ByLayer
 62
  256
370
   -1
100
AcDbLine
 10
300
 20
-300
 11
400
 21
-300
  0
LINE
  5
46A
100
AcDbEntity
  8
grille2
  6
ByLayer
 62
  256
370
   -1
100
AcDbLine
 10
400
 20
-300
 11
400
 21
-200
  0
LINE
  5
46B
100
AcDbEntity
  8
grille2
  6
ByLayer
 62
  256
370
   -1
100
AcDbLine
 10
300
 20
-400
 11
400
 21
-400
  0
LINE
  5
46C
100
AcDbEntity
  8
grille2
  6
ByLayer
 62
  256
370
   -1
100
AcDbLine
 10
400
 20
-400
 11
400
 21
-300
  0
LINE
  5
46D
100
AcDbEntity
  8
grille2
  6
ByLayer
 62
  256
370
   -1
100
AcDbLine
 10
300
 20
-500
 11
400
 21
-500
  0
LINE
  5
46E
100
AcDbEntity
  8
grille2
  6
ByLayer
 62
  256
370
   -1
100
AcDbLine
 10
400
 20
-500
 11
400
 21
-400
  0
LINE
  5
46F
100
AcDbEntity
  8
grille2
  6
ByLayer
 62
  256
370
   -1
100
AcDbLine
 10
300
 20
-600
 11
400
 21
-600
  0
LINE
  5
470
100
AcDbEntity
  8
grille2
  6
ByLayer
 62
  256
370
   -1
100
AcDbLine
 10
400
 20
-600
 11
400
 21
-500
  0
LINE
  5
471
100
AcDbEntity
  8
grille2
  6
ByLayer
 62
  256
370
   -1
100
AcDbLine
 10
300
 20
-700
 11
400
 21
-700
  0
LINE
  5
472
100
AcDbEntity
  8
grille2
  6
ByLayer
 62
  256
370
   -1
100
AcDbLine
 10
400
 20
-700
 11
400
 21
-600
  0
LINE
  5
473
100
AcDbEntity
  8
grille2
  6
ByLayer
 62
  256
370
   -1
100
AcDbLine
 10
300
 20
-800
 11
400
 21
-800
  0
LINE
  5
474
100
AcDbEntity
  8
grille2
  6
ByLayer
 62
  256
370
   -1
100
AcDbLine
 10
400
 20
-800
 11
400
 21
-700
  0
LINE
  5
475
100
AcDbEntity
  8
grille2
  6
ByLayer
 62
  256
370
   -1
100
AcDbLine
 10
300
 20
-900
 11
400
 21
-900
  0
LINE
  5
476
100
AcDbEntity
  8
grille2
  6
ByLayer
 62
  256
370
   -1
100
AcDbLine
 10
400
 20
-900
 11
400
 21
-800
  0
LINE
  5
477
100
AcDbEntity
  8
grille2
  6
ByLayer
 62
  256
370
   -1
100
AcDbLine
 10
300
 20
-1000
 11
400
 21
-1000
  0
LINE
  5
478
100
AcDbEntity
  8
grille2
  6
ByLayer
 62
  256
370
   -1
100
AcDbLine
 10
400
 20
-1000
 11
400
 21
-900
  0
LINE
  5
479
100
AcDbEntity
  8
grille2
  6
ByLayer
 62
  256
370
   -1
100
AcDbLine
 10
300
 20
-1100
 11
400
 21
-1100
  0
LINE
  5
47A
100
AcDbEntity
  8
grille2
  6
ByLayer
 62
  256
370
   -1
100
AcDbLine
 10
400
 20
-1100
 11
400
 21
-1000
  0
LINE
  5
47B
100
AcDbEntity
  8
grille2
  6
ByLayer
 62
  256
370
   -1
100
AcDbLine
 10
300
 20
-1200
 11
400
 21
-1200
  0
LINE
  5
47C
100
AcDbEntity
  8
grille2
  6
ByLayer
 62
  256
370
   -1
100
AcDbLine
 10
400
 20
-1200
 11
400
 21
-1100
  0
LINE
  5
47D
100
AcDbEntity
  8
grille2
  6
ByLayer
 62
  256
370
   -1
100
AcDbLine
 10
300
 20
-1300
 11
400
 21
-1300
  0
LINE
  5
47E
100
AcDbEntity
  8
grille2
  6
ByLayer
 62
  256
370
   -1
100
AcDbLine
 10
400
 20
-1300
 11
400
 21
-1200
  0
LINE
  5
47F
100
AcDbEntity
  8
grille2
  6
ByLayer
 62
  256
370
   -1
100
AcDbLine
 10
300
 20
-1400
 11
400
 21
-1400
  0
LINE
  5
480
100
AcDbEntity
  8
grille2
  6
ByLayer
 62
  256
370
   -1
100
AcDbLine
 10
400
 20
-1400
 11
400
 21
-1300
  0
LINE
  5
481
100
AcDbEntity
  8
grille2
  6
ByLayer
 62
  256
370
   -1
100
AcDbLine
 10
300
 20
-1500
 11
400
 21
-1500
  0
LINE
  5
482
100
AcDbEntity
  8
grille2
  6
ByLayer
 62
  256
370
   -1
100
AcDbLine
 10
400
 20
-1500
 11
400
 21
-1400
  0
LINE
  5
483
100
AcDbEntity
  8
grille2
  6
ByLayer
 62
  256
370
   -1
100
AcDbLine
 10
300
 20
-1600
 11
400
 21
-1600
  0
LINE
  5
484
100
AcDbEntity
  8
grille2
  6
ByLayer
 62
  256
370
   -1
100
AcDbLine
 10
400
 20
-1600
 11
400
 21
-1500
  0
LINE
  5
485
100
AcDbEntity
  8
grille2
  6
ByLayer
 62
  256
370
   -1
100
AcDbLine
 10
300
 20
-1700
 11
400
 21
-1700
  0
LINE
  5
486
100
AcDbEntity
  8
grille2
  6
ByLayer
 62
  256
370
   -1
100
AcDbLine
 10
400
 20
-1700
 11
400
 21
-1600
  0
LINE
  5
487
100
AcDbEntity
  8
grille2
  6
ByLayer
 62
  256
370
   -1
100
AcDbLine
 10
300
 20
400
 11
400
 21
400
  0
LINE
  5
488
100
AcDbEntity
  8
grille2
  6
ByLayer
 62
  256
370
   -1
100
AcDbLine
 10
400
 20
300
 11
500
 21
300
  0
LINE
  5
489
100
AcDbEntity
  8
grille2
  6
ByLayer
 62
  256
370
   -1
100
AcDbLine
 10
500
 20
300
 11
500
 21
400
  0
LINE
  5
48A
100
AcDbEntity
  8
grille2
  6
ByLayer
 62
  256
370
   -1
100
AcDbLine
 10
400
 20
200
 11
500
 21
200
  0
LINE
  5
48B
100
AcDbEntity
  8
grille2
  6
ByLayer
 62
  256
370
   -1
100
AcDbLine
 10
500
 20
200
 11
500
 21
300
  0
LINE
  5
48C
100
AcDbEntity
  8
grille2
  6
ByLayer
 62
  256
370
   -1
100
AcDbLine
 10
400
 20
100
 11
500
 21
100
  0
LINE
  5
48D
100
AcDbEntity
  8
grille2
  6
ByLayer
 62
  256
370
   -1
100
AcDbLine
 10
500
 20
100
 11
500
 21
200
  0
LINE
  5
48E
100
AcDbEntity
  8
grille2
  6
ByLayer
 62
  256
370
   -1
100
AcDbLine
 10
400
 20
0
 11
500
 21
0
  0
LINE
  5
48F
100
AcDbEntity
  8
grille2
  6
ByLayer
 62
  256
370
   -1
100
AcDbLine
 10
500
 20
0
 11
500
 21
100
  0
LINE
  5
490
100
AcDbEntity
  8
grille2
  6
ByLayer
 62
  256
370
   -1
100
AcDbLine
 10
400
 20
-100
 11
500
 21
-100
  0
LINE
  5
491
100
AcDbEntity
  8
grille2
  6
ByLayer
 62
  256
370
   -1
100
AcDbLine
 10
500
 20
-100
 11
500
 21
0
  0
LINE
  5
492
100
AcDbEntity
  8
grille2
  6
ByLayer
 62
  256
370
   -1
100
AcDbLine
 10
400
 20
-200
 11
500
 21
-200
  0
LINE
  5
493
100
AcDbEntity
  8
grille2
  6
ByLayer
 62
  256
370
   -1
100
AcDbLine
 10
500
 20
-200
 11
500
 21
-100
  0
LINE
  5
494
100
AcDbEntity
  8
grille2
  6
ByLayer
 62
  256
370
   -1
100
AcDbLine
 10
400
 20
-300
 11
500
 21
-300
  0
LINE
  5
495
100
AcDbEntity
  8
grille2
  6
ByLayer
 62
  256
370
   -1
100
AcDbLine
 10
500
 20
-300
 11
500
 21
-200
  0
LINE
  5
496
100
AcDbEntity
  8
grille2
  6
ByLayer
 62
  256
370
   -1
100
AcDbLine
 10
400
 20
-400
 11
500
 21
-400
  0
LINE
  5
497
100
AcDbEntity
  8
grille2
  6
ByLayer
 62
  256
370
   -1
100
AcDbLine
 10
500
 20
-400
 11
500
 21
-300
  0
LINE
  5
498
100
AcDbEntity
  8
grille2
  6
ByLayer
 62
  256
370
   -1
100
AcDbLine
 10
400
 20
-500
 11
500
 21
-500
  0
LINE
  5
499
100
AcDbEntity
  8
grille2
  6
ByLayer
 62
  256
370
   -1
100
AcDbLine
 10
500
 20
-500
 11
500
 21
-400
  0
LINE
  5
49A
100
AcDbEntity
  8
grille2
  6
ByLayer
 62
  256
370
   -1
100
AcDbLine
 10
400
 20
-600
 11
500
 21
-600
  0
LINE
  5
49B
100
AcDbEntity
  8
grille2
  6
ByLayer
 62
  256
370
   -1
100
AcDbLine
 10
500
 20
-600
 11
500
 21
-500
  0
LINE
  5
49C
100
AcDbEntity
  8
grille2
  6
ByLayer
 62
  256
370
   -1
100
AcDbLine
 10
400
 20
-700
 11
500
 21
-700
  0
LINE
  5
49D
100
AcDbEntity
  8
grille2
  6
ByLayer
 62
  256
370
   -1
100
AcDbLine
 10
500
 20
-700
 11
500
 21
-600
  0
LINE
  5
49E
100
AcDbEntity
  8
grille2
  6
ByLayer
 62
  256
370
   -1
100
AcDbLine
 10
400
 20
-800
 11
500
 21
-800
  0
LINE
  5
49F
100
AcDbEntity
  8
grille2
  6
ByLayer
 62
  256
370
   -1
100
AcDbLine
 10
500
 20
-800
 11
500
 21
-700
  0
LINE
  5
4A0
100
AcDbEntity
  8
grille2
  6
ByLayer
 62
  256
370
   -1
100
AcDbLine
 10
400
 20
-900
 11
500
 21
-900
  0
LINE
  5
4A1
100
AcDbEntity
  8
grille2
  6
ByLayer
 62
  256
370
   -1
100
AcDbLine
 10
500
 20
-900
 11
500
 21
-800
  0
LINE
  5
4A2
100
AcDbEntity
  8
grille2
  6
ByLayer
 62
  256
370
   -1
100
AcDbLine
 10
400
 20
-1000
 11
500
 21
-1000
  0
LINE
  5
4A3
100
AcDbEntity
  8
grille2
  6
ByLayer
 62
  256
370
   -1
100
AcDbLine
 10
500
 20
-1000
 11
500
 21
-900
  0
LINE
  5
4A4
100
AcDbEntity
  8
grille2
  6
ByLayer
 62
  256
370
   -1
100
AcDbLine
 10
400
 20
-1100
 11
500
 21
-1100
  0
LINE
  5
4A5
100
AcDbEntity
  8
grille2
  6
ByLayer
 62
  256
370
   -1
100
AcDbLine
 10
500
 20
-1100
 11
500
 21
-1000
  0
LINE
  5
4A6
100
AcDbEntity
  8
grille2
  6
ByLayer
 62
  256
370
   -1
100
AcDbLine
 10
400
 20
-1200
 11
500
 21
-1200
  0
LINE
  5
4A7
100
AcDbEntity
  8
grille2
  6
ByLayer
 62
  256
370
   -1
100
AcDbLine
 10
500
 20
-1200
 11
500
 21
-1100
  0
LINE
  5
4A8
100
AcDbEntity
  8
grille2
  6
ByLayer
 62
  256
370
   -1
100
AcDbLine
 10
400
 20
-1300
 11
500
 21
-1300
  0
LINE
  5
4A9
100
AcDbEntity
  8
grille2
  6
ByLayer
 62
  256
370
   -1
100
AcDbLine
 10
500
 20
-1300
 11
500
 21
-1200
  0
LINE
  5
4AA
100
AcDbEntity
  8
grille2
  6
ByLayer
 62
  256
370
   -1
100
AcDbLine
 10
400
 20
-1400
 11
500
 21
-1400
  0
LINE
  5
4AB
100
AcDbEntity
  8
grille2
  6
ByLayer
 62
  256
370
   -1
100
AcDbLine
 10
500
 20
-1400
 11
500
 21
-1300
  0
LINE
  5
4AC
100
AcDbEntity
  8
grille2
  6
ByLayer
 62
  256
370
   -1
100
AcDbLine
 10
400
 20
-1500
 11
500
 21
-1500
  0
LINE
  5
4AD
100
AcDbEntity
  8
grille2
  6
ByLayer
 62
  256
370
   -1
100
AcDbLine
 10
500
 20
-1500
 11
500
 21
-1400
  0
LINE
  5
4AE
100
AcDbEntity
  8
grille2
  6
ByLayer
 62
  256
370
   -1
100
AcDbLine
 10
400
 20
-1600
 11
500
 21
-1600
  0
LINE
  5
4AF
100
AcDbEntity
  8
grille2
  6
ByLayer
 62
  256
370
   -1
100
AcDbLine
 10
500
 20
-1600
 11
500
 21
-1500
  0
LINE
  5
4B0
100
AcDbEntity
  8
grille2
  6
ByLayer
 62
  256
370
   -1
100
AcDbLine
 10
400
 20
-1700
 11
500
 21
-1700
  0
LINE
  5
4B1
100
AcDbEntity
  8
grille2
  6
ByLayer
 62
  256
370
   -1
100
AcDbLine
 10
500
 20
-1700
 11
500
 21
-1600
  0
LINE
  5
4B2
100
AcDbEntity
  8
grille2
  6
ByLayer
 62
  256
370
   -1
100
AcDbLine
 10
400
 20
400
 11
500
 21
400
  0
LINE
  5
4B3
100
AcDbEntity
  8
grille2
  6
ByLayer
 62
  256
370
   -1
100
AcDbLine
 10
500
 20
300
 11
600
 21
300
  0
LINE
  5
4B4
100
AcDbEntity
  8
grille2
  6
ByLayer
 62
  256
370
   -1
100
AcDbLine
 10
600
 20
300
 11
600
 21
400
  0
LINE
  5
4B5
100
AcDbEntity
  8
grille2
  6
ByLayer
 62
  256
370
   -1
100
AcDbLine
 10
500
 20
200
 11
600
 21
200
  0
LINE
  5
4B6
100
AcDbEntity
  8
grille2
  6
ByLayer
 62
  256
370
   -1
100
AcDbLine
 10
600
 20
200
 11
600
 21
300
  0
LINE
  5
4B7
100
AcDbEntity
  8
grille2
  6
ByLayer
 62
  256
370
   -1
100
AcDbLine
 10
500
 20
100
 11
600
 21
100
  0
LINE
  5
4B8
100
AcDbEntity
  8
grille2
  6
ByLayer
 62
  256
370
   -1
100
AcDbLine
 10
600
 20
100
 11
600
 21
200
  0
LINE
  5
4B9
100
AcDbEntity
  8
grille2
  6
ByLayer
 62
  256
370
   -1
100
AcDbLine
 10
500
 20
0
 11
600
 21
0
  0
LINE
  5
4BA
100
AcDbEntity
  8
grille2
  6
ByLayer
 62
  256
370
   -1
100
AcDbLine
 10
600
 20
0
 11
600
 21
100
  0
LINE
  5
4BB
100
AcDbEntity
  8
grille2
  6
ByLayer
 62
  256
370
   -1
100
AcDbLine
 10
500
 20
-100
 11
600
 21
-100
  0
LINE
  5
4BC
100
AcDbEntity
  8
grille2
  6
ByLayer
 62
  256
370
   -1
100
AcDbLine
 10
600
 20
-100
 11
600
 21
0
  0
LINE
  5
4BD
100
AcDbEntity
  8
grille2
  6
ByLayer
 62
  256
370
   -1
100
AcDbLine
 10
500
 20
-200
 11
600
 21
-200
  0
LINE
  5
4BE
100
AcDbEntity
  8
grille2
  6
ByLayer
 62
  256
370
   -1
100
AcDbLine
 10
600
 20
-200
 11
600
 21
-100
  0
LINE
  5
4BF
100
AcDbEntity
  8
grille2
  6
ByLayer
 62
  256
370
   -1
100
AcDbLine
 10
500
 20
-300
 11
600
 21
-300
  0
LINE
  5
4C0
100
AcDbEntity
  8
grille2
  6
ByLayer
 62
  256
370
   -1
100
AcDbLine
 10
600
 20
-300
 11
600
 21
-200
  0
LINE
  5
4C1
100
AcDbEntity
  8
grille2
  6
ByLayer
 62
  256
370
   -1
100
AcDbLine
 10
500
 20
-400
 11
600
 21
-400
  0
LINE
  5
4C2
100
AcDbEntity
  8
grille2
  6
ByLayer
 62
  256
370
   -1
100
AcDbLine
 10
600
 20
-400
 11
600
 21
-300
  0
LINE
  5
4C3
100
AcDbEntity
  8
grille2
  6
ByLayer
 62
  256
370
   -1
100
AcDbLine
 10
500
 20
-500
 11
600
 21
-500
  0
LINE
  5
4C4
100
AcDbEntity
  8
grille2
  6
ByLayer
 62
  256
370
   -1
100
AcDbLine
 10
600
 20
-500
 11
600
 21
-400
  0
LINE
  5
4C5
100
AcDbEntity
  8
grille2
  6
ByLayer
 62
  256
370
   -1
100
AcDbLine
 10
500
 20
-600
 11
600
 21
-600
  0
LINE
  5
4C6
100
AcDbEntity
  8
grille2
  6
ByLayer
 62
  256
370
   -1
100
AcDbLine
 10
600
 20
-600
 11
600
 21
-500
  0
LINE
  5
4C7
100
AcDbEntity
  8
grille2
  6
ByLayer
 62
  256
370
   -1
100
AcDbLine
 10
500
 20
-700
 11
600
 21
-700
  0
LINE
  5
4C8
100
AcDbEntity
  8
grille2
  6
ByLayer
 62
  256
370
   -1
100
AcDbLine
 10
600
 20
-700
 11
600
 21
-600
  0
LINE
  5
4C9
100
AcDbEntity
  8
grille2
  6
ByLayer
 62
  256
370
   -1
100
AcDbLine
 10
500
 20
-800
 11
600
 21
-800
  0
LINE
  5
4CA
100
AcDbEntity
  8
grille2
  6
ByLayer
 62
  256
370
   -1
100
AcDbLine
 10
600
 20
-800
 11
600
 21
-700
  0
LINE
  5
4CB
100
AcDbEntity
  8
grille2
  6
ByLayer
 62
  256
370
   -1
100
AcDbLine
 10
500
 20
-900
 11
600
 21
-900
  0
LINE
  5
4CC
100
AcDbEntity
  8
grille2
  6
ByLayer
 62
  256
370
   -1
100
AcDbLine
 10
600
 20
-900
 11
600
 21
-800
  0
LINE
  5
4CD
100
AcDbEntity
  8
grille2
  6
ByLayer
 62
  256
370
   -1
100
AcDbLine
 10
500
 20
-1000
 11
600
 21
-1000
  0
LINE
  5
4CE
100
AcDbEntity
  8
grille2
  6
ByLayer
 62
  256
370
   -1
100
AcDbLine
 10
600
 20
-1000
 11
600
 21
-900
  0
LINE
  5
4CF
100
AcDbEntity
  8
grille2
  6
ByLayer
 62
  256
370
   -1
100
AcDbLine
 10
500
 20
-1100
 11
600
 21
-1100
  0
LINE
  5
4D0
100
AcDbEntity
  8
grille2
  6
ByLayer
 62
  256
370
   -1
100
AcDbLine
 10
600
 20
-1100
 11
600
 21
-1000
  0
LINE
  5
4D1
100
AcDbEntity
  8
grille2
  6
ByLayer
 62
  256
370
   -1
100
AcDbLine
 10
500
 20
-1200
 11
600
 21
-1200
  0
LINE
  5
4D2
100
AcDbEntity
  8
grille2
  6
ByLayer
 62
  256
370
   -1
100
AcDbLine
 10
600
 20
-1200
 11
600
 21
-1100
  0
LINE
  5
4D3
100
AcDbEntity
  8
grille2
  6
ByLayer
 62
  256
370
   -1
100
AcDbLine
 10
500
 20
-1300
 11
600
 21
-1300
  0
LINE
  5
4D4
100
AcDbEntity
  8
grille2
  6
ByLayer
 62
  256
370
   -1
100
AcDbLine
 10
600
 20
-1300
 11
600
 21
-1200
  0
LINE
  5
4D5
100
AcDbEntity
  8
grille2
  6
ByLayer
 62
  256
370
   -1
100
AcDbLine
 10
500
 20
-1400
 11
600
 21
-1400
  0
LINE
  5
4D6
100
AcDbEntity
  8
grille2
  6
ByLayer
 62
  256
370
   -1
100
AcDbLine
 10
600
 20
-1400
 11
600
 21
-1300
  0
LINE
  5
4D7
100
AcDbEntity
  8
grille2
  6
ByLayer
 62
  256
370
   -1
100
AcDbLine
 10
500
 20
-1500
 11
600
 21
-1500
  0
LINE
  5
4D8
100
AcDbEntity
  8
grille2
  6
ByLayer
 62
  256
370
   -1
100
AcDbLine
 10
600
 20
-1500
 11
600
 21
-1400
  0
LINE
  5
4D9
100
AcDbEntity
  8
grille2
  6
ByLayer
 62
  256
370
   -1
100
AcDbLine
 10
500
 20
-1600
 11
600
 21
-1600
  0
LINE
  5
4DA
100
AcDbEntity
  8
grille2
  6
ByLayer
 62
  256
370
   -1
100
AcDbLine
 10
600
 20
-1600
 11
600
 21
-1500
  0
LINE
  5
4DB
100
AcDbEntity
  8
grille2
  6
ByLayer
 62
  256
370
   -1
100
AcDbLine
 10
500
 20
-1700
 11
600
 21
-1700
  0
LINE
  5
4DC
100
AcDbEntity
  8
grille2
  6
ByLayer
 62
  256
370
   -1
100
AcDbLine
 10
600
 20
-1700
 11
600
 21
-1600
  0
LINE
  5
4DD
100
AcDbEntity
  8
grille2
  6
ByLayer
 62
  256
370
   -1
100
AcDbLine
 10
500
 20
400
 11
600
 21
400
  0
LINE
  5
4DE
100
AcDbEntity
  8
grille2
  6
ByLayer
 62
  256
370
   -1
100
AcDbLine
 10
600
 20
300
 11
700
 21
300
  0
LINE
  5
4DF
100
AcDbEntity
  8
grille2
  6
ByLayer
 62
  256
370
   -1
100
AcDbLine
 10
700
 20
300
 11
700
 21
400
  0
LINE
  5
4E0
100
AcDbEntity
  8
grille2
  6
ByLayer
 62
  256
370
   -1
100
AcDbLine
 10
600
 20
200
 11
700
 21
200
  0
LINE
  5
4E1
100
AcDbEntity
  8
grille2
  6
ByLayer
 62
  256
370
   -1
100
AcDbLine
 10
700
 20
200
 11
700
 21
300
  0
LINE
  5
4E2
100
AcDbEntity
  8
grille2
  6
ByLayer
 62
  256
370
   -1
100
AcDbLine
 10
600
 20
100
 11
700
 21
100
  0
LINE
  5
4E3
100
AcDbEntity
  8
grille2
  6
ByLayer
 62
  256
370
   -1
100
AcDbLine
 10
700
 20
100
 11
700
 21
200
  0
LINE
  5
4E4
100
AcDbEntity
  8
grille2
  6
ByLayer
 62
  256
370
   -1
100
AcDbLine
 10
600
 20
0
 11
700
 21
0
  0
LINE
  5
4E5
100
AcDbEntity
  8
grille2
  6
ByLayer
 62
  256
370
   -1
100
AcDbLine
 10
700
 20
0
 11
700
 21
100
  0
LINE
  5
4E6
100
AcDbEntity
  8
grille2
  6
ByLayer
 62
  256
370
   -1
100
AcDbLine
 10
600
 20
-100
 11
700
 21
-100
  0
LINE
  5
4E7
100
AcDbEntity
  8
grille2
  6
ByLayer
 62
  256
370
   -1
100
AcDbLine
 10
700
 20
-100
 11
700
 21
0
  0
LINE
  5
4E8
100
AcDbEntity
  8
grille2
  6
ByLayer
 62
  256
370
   -1
100
AcDbLine
 10
600
 20
-200
 11
700
 21
-200
  0
LINE
  5
4E9
100
AcDbEntity
  8
grille2
  6
ByLayer
 62
  256
370
   -1
100
AcDbLine
 10
700
 20
-200
 11
700
 21
-100
  0
LINE
  5
4EA
100
AcDbEntity
  8
grille2
  6
ByLayer
 62
  256
370
   -1
100
AcDbLine
 10
600
 20
-300
 11
700
 21
-300
  0
LINE
  5
4EB
100
AcDbEntity
  8
grille2
  6
ByLayer
 62
  256
370
   -1
100
AcDbLine
 10
700
 20
-300
 11
700
 21
-200
  0
LINE
  5
4EC
100
AcDbEntity
  8
grille2
  6
ByLayer
 62
  256
370
   -1
100
AcDbLine
 10
600
 20
-400
 11
700
 21
-400
  0
LINE
  5
4ED
100
AcDbEntity
  8
grille2
  6
ByLayer
 62
  256
370
   -1
100
AcDbLine
 10
700
 20
-400
 11
700
 21
-300
  0
LINE
  5
4EE
100
AcDbEntity
  8
grille2
  6
ByLayer
 62
  256
370
   -1
100
AcDbLine
 10
600
 20
-500
 11
700
 21
-500
  0
LINE
  5
4EF
100
AcDbEntity
  8
grille2
  6
ByLayer
 62
  256
370
   -1
100
AcDbLine
 10
700
 20
-500
 11
700
 21
-400
  0
LINE
  5
4F0
100
AcDbEntity
  8
grille2
  6
ByLayer
 62
  256
370
   -1
100
AcDbLine
 10
600
 20
-600
 11
700
 21
-600
  0
LINE
  5
4F1
100
AcDbEntity
  8
grille2
  6
ByLayer
 62
  256
370
   -1
100
AcDbLine
 10
700
 20
-600
 11
700
 21
-500
  0
LINE
  5
4F2
100
AcDbEntity
  8
grille2
  6
ByLayer
 62
  256
370
   -1
100
AcDbLine
 10
600
 20
-700
 11
700
 21
-700
  0
LINE
  5
4F3
100
AcDbEntity
  8
grille2
  6
ByLayer
 62
  256
370
   -1
100
AcDbLine
 10
700
 20
-700
 11
700
 21
-600
  0
LINE
  5
4F4
100
AcDbEntity
  8
grille2
  6
ByLayer
 62
  256
370
   -1
100
AcDbLine
 10
600
 20
-800
 11
700
 21
-800
  0
LINE
  5
4F5
100
AcDbEntity
  8
grille2
  6
ByLayer
 62
  256
370
   -1
100
AcDbLine
 10
700
 20
-800
 11
700
 21
-700
  0
LINE
  5
4F6
100
AcDbEntity
  8
grille2
  6
ByLayer
 62
  256
370
   -1
100
AcDbLine
 10
600
 20
-900
 11
700
 21
-900
  0
LINE
  5
4F7
100
AcDbEntity
  8
grille2
  6
ByLayer
 62
  256
370
   -1
100
AcDbLine
 10
700
 20
-900
 11
700
 21
-800
  0
LINE
  5
4F8
100
AcDbEntity
  8
grille2
  6
ByLayer
 62
  256
370
   -1
100
AcDbLine
 10
600
 20
-1000
 11
700
 21
-1000
  0
LINE
  5
4F9
100
AcDbEntity
  8
grille2
  6
ByLayer
 62
  256
370
   -1
100
AcDbLine
 10
700
 20
-1000
 11
700
 21
-900
  0
LINE
  5
4FA
100
AcDbEntity
  8
grille2
  6
ByLayer
 62
  256
370
   -1
100
AcDbLine
 10
600
 20
-1100
 11
700
 21
-1100
  0
LINE
  5
4FB
100
AcDbEntity
  8
grille2
  6
ByLayer
 62
  256
370
   -1
100
AcDbLine
 10
700
 20
-1100
 11
700
 21
-1000
  0
LINE
  5
4FC
100
AcDbEntity
  8
grille2
  6
ByLayer
 62
  256
370
   -1
100
AcDbLine
 10
600
 20
-1200
 11
700
 21
-1200
  0
LINE
  5
4FD
100
AcDbEntity
  8
grille2
  6
ByLayer
 62
  256
370
   -1
100
AcDbLine
 10
700
 20
-1200
 11
700
 21
-1100
  0
LINE
  5
4FE
100
AcDbEntity
  8
grille2
  6
ByLayer
 62
  256
370
   -1
100
AcDbLine
 10
600
 20
-1300
 11
700
 21
-1300
  0
LINE
  5
4FF
100
AcDbEntity
  8
grille2
  6
ByLayer
 62
  256
370
   -1
100
AcDbLine
 10
700
 20
-1300
 11
700
 21
-1200
  0
LINE
  5
500
100
AcDbEntity
  8
grille2
  6
ByLayer
 62
  256
370
   -1
100
AcDbLine
 10
600
 20
-1400
 11
700
 21
-1400
  0
LINE
  5
501
100
AcDbEntity
  8
grille2
  6
ByLayer
 62
  256
370
   -1
100
AcDbLine
 10
700
 20
-1400
 11
700
 21
-1300
  0
LINE
  5
502
100
AcDbEntity
  8
grille2
  6
ByLayer
 62
  256
370
   -1
100
AcDbLine
 10
600
 20
-1500
 11
700
 21
-1500
  0
LINE
  5
503
100
AcDbEntity
  8
grille2
  6
ByLayer
 62
  256
370
   -1
100
AcDbLine
 10
700
 20
-1500
 11
700
 21
-1400
  0
LINE
  5
504
100
AcDbEntity
  8
grille2
  6
ByLayer
 62
  256
370
   -1
100
AcDbLine
 10
600
 20
-1600
 11
700
 21
-1600
  0
LINE
  5
505
100
AcDbEntity
  8
grille2
  6
ByLayer
 62
  256
370
   -1
100
AcDbLine
 10
700
 20
-1600
 11
700
 21
-1500
  0
LINE
  5
506
100
AcDbEntity
  8
grille2
  6
ByLayer
 62
  256
370
   -1
100
AcDbLine
 10
600
 20
-1700
 11
700
 21
-1700
  0
LINE
  5
507
100
AcDbEntity
  8
grille2
  6
ByLayer
 62
  256
370
   -1
100
AcDbLine
 10
700
 20
-1700
 11
700
 21
-1600
  0
LINE
  5
508
100
AcDbEntity
  8
grille2
  6
ByLayer
 62
  256
370
   -1
100
AcDbLine
 10
600
 20
400
 11
700
 21
400
  0
LINE
  5
509
100
AcDbEntity
  8
grille2
  6
ByLayer
 62
  256
370
   -1
100
AcDbLine
 10
700
 20
300
 11
800
 21
300
  0
LINE
  5
50A
100
AcDbEntity
  8
grille2
  6
ByLayer
 62
  256
370
   -1
100
AcDbLine
 10
800
 20
300
 11
800
 21
400
  0
LINE
  5
50B
100
AcDbEntity
  8
grille2
  6
ByLayer
 62
  256
370
   -1
100
AcDbLine
 10
700
 20
200
 11
800
 21
200
  0
LINE
  5
50C
100
AcDbEntity
  8
grille2
  6
ByLayer
 62
  256
370
   -1
100
AcDbLine
 10
800
 20
200
 11
800
 21
300
  0
LINE
  5
50D
100
AcDbEntity
  8
grille2
  6
ByLayer
 62
  256
370
   -1
100
AcDbLine
 10
700
 20
100
 11
800
 21
100
  0
LINE
  5
50E
100
AcDbEntity
  8
grille2
  6
ByLayer
 62
  256
370
   -1
100
AcDbLine
 10
800
 20
100
 11
800
 21
200
  0
LINE
  5
50F
100
AcDbEntity
  8
grille2
  6
ByLayer
 62
  256
370
   -1
100
AcDbLine
 10
700
 20
0
 11
800
 21
0
  0
LINE
  5
510
100
AcDbEntity
  8
grille2
  6
ByLayer
 62
  256
370
   -1
100
AcDbLine
 10
800
 20
0
 11
800
 21
100
  0
LINE
  5
511
100
AcDbEntity
  8
grille2
  6
ByLayer
 62
  256
370
   -1
100
AcDbLine
 10
700
 20
-100
 11
800
 21
-100
  0
LINE
  5
512
100
AcDbEntity
  8
grille2
  6
ByLayer
 62
  256
370
   -1
100
AcDbLine
 10
800
 20
-100
 11
800
 21
0
  0
LINE
  5
513
100
AcDbEntity
  8
grille2
  6
ByLayer
 62
  256
370
   -1
100
AcDbLine
 10
700
 20
-200
 11
800
 21
-200
  0
LINE
  5
514
100
AcDbEntity
  8
grille2
  6
ByLayer
 62
  256
370
   -1
100
AcDbLine
 10
800
 20
-200
 11
800
 21
-100
  0
LINE
  5
515
100
AcDbEntity
  8
grille2
  6
ByLayer
 62
  256
370
   -1
100
AcDbLine
 10
700
 20
-300
 11
800
 21
-300
  0
LINE
  5
516
100
AcDbEntity
  8
grille2
  6
ByLayer
 62
  256
370
   -1
100
AcDbLine
 10
800
 20
-300
 11
800
 21
-200
  0
LINE
  5
517
100
AcDbEntity
  8
grille2
  6
ByLayer
 62
  256
370
   -1
100
AcDbLine
 10
700
 20
-400
 11
800
 21
-400
  0
LINE
  5
518
100
AcDbEntity
  8
grille2
  6
ByLayer
 62
  256
370
   -1
100
AcDbLine
 10
800
 20
-400
 11
800
 21
-300
  0
LINE
  5
519
100
AcDbEntity
  8
grille2
  6
ByLayer
 62
  256
370
   -1
100
AcDbLine
 10
700
 20
-500
 11
800
 21
-500
  0
LINE
  5
51A
100
AcDbEntity
  8
grille2
  6
ByLayer
 62
  256
370
   -1
100
AcDbLine
 10
800
 20
-500
 11
800
 21
-400
  0
LINE
  5
51B
100
AcDbEntity
  8
grille2
  6
ByLayer
 62
  256
370
   -1
100
AcDbLine
 10
700
 20
-600
 11
800
 21
-600
  0
LINE
  5
51C
100
AcDbEntity
  8
grille2
  6
ByLayer
 62
  256
370
   -1
100
AcDbLine
 10
800
 20
-600
 11
800
 21
-500
  0
LINE
  5
51D
100
AcDbEntity
  8
grille2
  6
ByLayer
 62
  256
370
   -1
100
AcDbLine
 10
700
 20
-700
 11
800
 21
-700
  0
LINE
  5
51E
100
AcDbEntity
  8
grille2
  6
ByLayer
 62
  256
370
   -1
100
AcDbLine
 10
800
 20
-700
 11
800
 21
-600
  0
LINE
  5
51F
100
AcDbEntity
  8
grille2
  6
ByLayer
 62
  256
370
   -1
100
AcDbLine
 10
700
 20
-800
 11
800
 21
-800
  0
LINE
  5
520
100
AcDbEntity
  8
grille2
  6
ByLayer
 62
  256
370
   -1
100
AcDbLine
 10
800
 20
-800
 11
800
 21
-700
  0
LINE
  5
521
100
AcDbEntity
  8
grille2
  6
ByLayer
 62
  256
370
   -1
100
AcDbLine
 10
700
 20
-900
 11
800
 21
-900
  0
LINE
  5
522
100
AcDbEntity
  8
grille2
  6
ByLayer
 62
  256
370
   -1
100
AcDbLine
 10
800
 20
-900
 11
800
 21
-800
  0
LINE
  5
523
100
AcDbEntity
  8
grille2
  6
ByLayer
 62
  256
370
   -1
100
AcDbLine
 10
700
 20
-1000
 11
800
 21
-1000
  0
LINE
  5
524
100
AcDbEntity
  8
grille2
  6
ByLayer
 62
  256
370
   -1
100
AcDbLine
 10
800
 20
-1000
 11
800
 21
-900
  0
LINE
  5
525
100
AcDbEntity
  8
grille2
  6
ByLayer
 62
  256
370
   -1
100
AcDbLine
 10
700
 20
-1100
 11
800
 21
-1100
  0
LINE
  5
526
100
AcDbEntity
  8
grille2
  6
ByLayer
 62
  256
370
   -1
100
AcDbLine
 10
800
 20
-1100
 11
800
 21
-1000
  0
LINE
  5
527
100
AcDbEntity
  8
grille2
  6
ByLayer
 62
  256
370
   -1
100
AcDbLine
 10
700
 20
-1200
 11
800
 21
-1200
  0
LINE
  5
528
100
AcDbEntity
  8
grille2
  6
ByLayer
 62
  256
370
   -1
100
AcDbLine
 10
800
 20
-1200
 11
800
 21
-1100
  0
LINE
  5
529
100
AcDbEntity
  8
grille2
  6
ByLayer
 62
  256
370
   -1
100
AcDbLine
 10
700
 20
-1300
 11
800
 21
-1300
  0
LINE
  5
52A
100
AcDbEntity
  8
grille2
  6
ByLayer
 62
  256
370
   -1
100
AcDbLine
 10
800
 20
-1300
 11
800
 21
-1200
  0
LINE
  5
52B
100
AcDbEntity
  8
grille2
  6
ByLayer
 62
  256
370
   -1
100
AcDbLine
 10
700
 20
-1400
 11
800
 21
-1400
  0
LINE
  5
52C
100
AcDbEntity
  8
grille2
  6
ByLayer
 62
  256
370
   -1
100
AcDbLine
 10
800
 20
-1400
 11
800
 21
-1300
  0
LINE
  5
52D
100
AcDbEntity
  8
grille2
  6
ByLayer
 62
  256
370
   -1
100
AcDbLine
 10
700
 20
-1500
 11
800
 21
-1500
  0
LINE
  5
52E
100
AcDbEntity
  8
grille2
  6
ByLayer
 62
  256
370
   -1
100
AcDbLine
 10
800
 20
-1500
 11
800
 21
-1400
  0
LINE
  5
52F
100
AcDbEntity
  8
grille2
  6
ByLayer
 62
  256
370
   -1
100
AcDbLine
 10
700
 20
-1600
 11
800
 21
-1600
  0
LINE
  5
530
100
AcDbEntity
  8
grille2
  6
ByLayer
 62
  256
370
   -1
100
AcDbLine
 10
800
 20
-1600
 11
800
 21
-1500
  0
LINE
  5
531
100
AcDbEntity
  8
grille2
  6
ByLayer
 62
  256
370
   -1
100
AcDbLine
 10
700
 20
-1700
 11
800
 21
-1700
  0
LINE
  5
532
100
AcDbEntity
  8
grille2
  6
ByLayer
 62
  256
370
   -1
100
AcDbLine
 10
800
 20
-1700
 11
800
 21
-1600
  0
LINE
  5
533
100
AcDbEntity
  8
grille2
  6
ByLayer
 62
  256
370
   -1
100
AcDbLine
 10
700
 20
400
 11
800
 21
400
  0
LINE
  5
534
100
AcDbEntity
  8
grille2
  6
ByLayer
 62
  256
370
   -1
100
AcDbLine
 10
800
 20
300
 11
900
 21
300
  0
LINE
  5
535
100
AcDbEntity
  8
grille2
  6
ByLayer
 62
  256
370
   -1
100
AcDbLine
 10
900
 20
300
 11
900
 21
400
  0
LINE
  5
536
100
AcDbEntity
  8
grille2
  6
ByLayer
 62
  256
370
   -1
100
AcDbLine
 10
800
 20
200
 11
900
 21
200
  0
LINE
  5
537
100
AcDbEntity
  8
grille2
  6
ByLayer
 62
  256
370
   -1
100
AcDbLine
 10
900
 20
200
 11
900
 21
300
  0
LINE
  5
538
100
AcDbEntity
  8
grille2
  6
ByLayer
 62
  256
370
   -1
100
AcDbLine
 10
800
 20
100
 11
900
 21
100
  0
LINE
  5
539
100
AcDbEntity
  8
grille2
  6
ByLayer
 62
  256
370
   -1
100
AcDbLine
 10
900
 20
100
 11
900
 21
200
  0
LINE
  5
53A
100
AcDbEntity
  8
grille2
  6
ByLayer
 62
  256
370
   -1
100
AcDbLine
 10
800
 20
0
 11
900
 21
0
  0
LINE
  5
53B
100
AcDbEntity
  8
grille2
  6
ByLayer
 62
  256
370
   -1
100
AcDbLine
 10
900
 20
0
 11
900
 21
100
  0
LINE
  5
53C
100
AcDbEntity
  8
grille2
  6
ByLayer
 62
  256
370
   -1
100
AcDbLine
 10
800
 20
-100
 11
900
 21
-100
  0
LINE
  5
53D
100
AcDbEntity
  8
grille2
  6
ByLayer
 62
  256
370
   -1
100
AcDbLine
 10
900
 20
-100
 11
900
 21
0
  0
LINE
  5
53E
100
AcDbEntity
  8
grille2
  6
ByLayer
 62
  256
370
   -1
100
AcDbLine
 10
800
 20
-200
 11
900
 21
-200
  0
LINE
  5
53F
100
AcDbEntity
  8
grille2
  6
ByLayer
 62
  256
370
   -1
100
AcDbLine
 10
900
 20
-200
 11
900
 21
-100
  0
LINE
  5
540
100
AcDbEntity
  8
grille2
  6
ByLayer
 62
  256
370
   -1
100
AcDbLine
 10
800
 20
-300
 11
900
 21
-300
  0
LINE
  5
541
100
AcDbEntity
  8
grille2
  6
ByLayer
 62
  256
370
   -1
100
AcDbLine
 10
900
 20
-300
 11
900
 21
-200
  0
LINE
  5
542
100
AcDbEntity
  8
grille2
  6
ByLayer
 62
  256
370
   -1
100
AcDbLine
 10
800
 20
-400
 11
900
 21
-400
  0
LINE
  5
543
100
AcDbEntity
  8
grille2
  6
ByLayer
 62
  256
370
   -1
100
AcDbLine
 10
900
 20
-400
 11
900
 21
-300
  0
LINE
  5
544
100
AcDbEntity
  8
grille2
  6
ByLayer
 62
  256
370
   -1
100
AcDbLine
 10
800
 20
-500
 11
900
 21
-500
  0
LINE
  5
545
100
AcDbEntity
  8
grille2
  6
ByLayer
 62
  256
370
   -1
100
AcDbLine
 10
900
 20
-500
 11
900
 21
-400
  0
LINE
  5
546
100
AcDbEntity
  8
grille2
  6
ByLayer
 62
  256
370
   -1
100
AcDbLine
 10
800
 20
-600
 11
900
 21
-600
  0
LINE
  5
547
100
AcDbEntity
  8
grille2
  6
ByLayer
 62
  256
370
   -1
100
AcDbLine
 10
900
 20
-600
 11
900
 21
-500
  0
LINE
  5
548
100
AcDbEntity
  8
grille2
  6
ByLayer
 62
  256
370
   -1
100
AcDbLine
 10
800
 20
-700
 11
900
 21
-700
  0
LINE
  5
549
100
AcDbEntity
  8
grille2
  6
ByLayer
 62
  256
370
   -1
100
AcDbLine
 10
900
 20
-700
 11
900
 21
-600
  0
LINE
  5
54A
100
AcDbEntity
  8
grille2
  6
ByLayer
 62
  256
370
   -1
100
AcDbLine
 10
800
 20
-800
 11
900
 21
-800
  0
LINE
  5
54B
100
AcDbEntity
  8
grille2
  6
ByLayer
 62
  256
370
   -1
100
AcDbLine
 10
900
 20
-800
 11
900
 21
-700
  0
LINE
  5
54C
100
AcDbEntity
  8
grille2
  6
ByLayer
 62
  256
370
   -1
100
AcDbLine
 10
800
 20
-900
 11
900
 21
-900
  0
LINE
  5
54D
100
AcDbEntity
  8
grille2
  6
ByLayer
 62
  256
370
   -1
100
AcDbLine
 10
900
 20
-900
 11
900
 21
-800
  0
LINE
  5
54E
100
AcDbEntity
  8
grille2
  6
ByLayer
 62
  256
370
   -1
100
AcDbLine
 10
800
 20
-1000
 11
900
 21
-1000
  0
LINE
  5
54F
100
AcDbEntity
  8
grille2
  6
ByLayer
 62
  256
370
   -1
100
AcDbLine
 10
900
 20
-1000
 11
900
 21
-900
  0
LINE
  5
550
100
AcDbEntity
  8
grille2
  6
ByLayer
 62
  256
370
   -1
100
AcDbLine
 10
800
 20
-1100
 11
900
 21
-1100
  0
LINE
  5
551
100
AcDbEntity
  8
grille2
  6
ByLayer
 62
  256
370
   -1
100
AcDbLine
 10
900
 20
-1100
 11
900
 21
-1000
  0
LINE
  5
552
100
AcDbEntity
  8
grille2
  6
ByLayer
 62
  256
370
   -1
100
AcDbLine
 10
800
 20
-1200
 11
900
 21
-1200
  0
LINE
  5
553
100
AcDbEntity
  8
grille2
  6
ByLayer
 62
  256
370
   -1
100
AcDbLine
 10
900
 20
-1200
 11
900
 21
-1100
  0
LINE
  5
554
100
AcDbEntity
  8
grille2
  6
ByLayer
 62
  256
370
   -1
100
AcDbLine
 10
800
 20
-1300
 11
900
 21
-1300
  0
LINE
  5
555
100
AcDbEntity
  8
grille2
  6
ByLayer
 62
  256
370
   -1
100
AcDbLine
 10
900
 20
-1300
 11
900
 21
-1200
  0
LINE
  5
556
100
AcDbEntity
  8
grille2
  6
ByLayer
 62
  256
370
   -1
100
AcDbLine
 10
800
 20
-1400
 11
900
 21
-1400
  0
LINE
  5
557
100
AcDbEntity
  8
grille2
  6
ByLayer
 62
  256
370
   -1
100
AcDbLine
 10
900
 20
-1400
 11
900
 21
-1300
  0
LINE
  5
558
100
AcDbEntity
  8
grille2
  6
ByLayer
 62
  256
370
   -1
100
AcDbLine
 10
800
 20
-1500
 11
900
 21
-1500
  0
LINE
  5
559
100
AcDbEntity
  8
grille2
  6
ByLayer
 62
  256
370
   -1
100
AcDbLine
 10
900
 20
-1500
 11
900
 21
-1400
  0
LINE
  5
55A
100
AcDbEntity
  8
grille2
  6
ByLayer
 62
  256
370
   -1
100
AcDbLine
 10
800
 20
-1600
 11
900
 21
-1600
  0
LINE
  5
55B
100
AcDbEntity
  8
grille2
  6
ByLayer
 62
  256
370
   -1
100
AcDbLine
 10
900
 20
-1600
 11
900
 21
-1500
  0
LINE
  5
55C
100
AcDbEntity
  8
grille2
  6
ByLayer
 62
  256
370
   -1
100
AcDbLine
 10
800
 20
-1700
 11
900
 21
-1700
  0
LINE
  5
55D
100
AcDbEntity
  8
grille2
  6
ByLayer
 62
  256
370
   -1
100
AcDbLine
 10
900
 20
-1700
 11
900
 21
-1600
  0
LINE
  5
55E
100
AcDbEntity
  8
grille2
  6
ByLayer
 62
  256
370
   -1
100
AcDbLine
 10
800
 20
400
 11
900
 21
400
  0
LINE
  5
55F
100
AcDbEntity
  8
grille2
  6
ByLayer
 62
  256
370
   -1
100
AcDbLine
 10
900
 20
300
 11
1000
 21
300
  0
LINE
  5
560
100
AcDbEntity
  8
grille2
  6
ByLayer
 62
  256
370
   -1
100
AcDbLine
 10
1000
 20
300
 11
1000
 21
400
  0
LINE
  5
561
100
AcDbEntity
  8
grille2
  6
ByLayer
 62
  256
370
   -1
100
AcDbLine
 10
900
 20
200
 11
1000
 21
200
  0
LINE
  5
562
100
AcDbEntity
  8
grille2
  6
ByLayer
 62
  256
370
   -1
100
AcDbLine
 10
1000
 20
200
 11
1000
 21
300
  0
LINE
  5
563
100
AcDbEntity
  8
grille2
  6
ByLayer
 62
  256
370
   -1
100
AcDbLine
 10
900
 20
100
 11
1000
 21
100
  0
LINE
  5
564
100
AcDbEntity
  8
grille2
  6
ByLayer
 62
  256
370
   -1
100
AcDbLine
 10
1000
 20
100
 11
1000
 21
200
  0
LINE
  5
565
100
AcDbEntity
  8
grille2
  6
ByLayer
 62
  256
370
   -1
100
AcDbLine
 10
900
 20
0
 11
1000
 21
0
  0
LINE
  5
566
100
AcDbEntity
  8
grille2
  6
ByLayer
 62
  256
370
   -1
100
AcDbLine
 10
1000
 20
0
 11
1000
 21
100
  0
LINE
  5
567
100
AcDbEntity
  8
grille2
  6
ByLayer
 62
  256
370
   -1
100
AcDbLine
 10
900
 20
-100
 11
1000
 21
-100
  0
LINE
  5
568
100
AcDbEntity
  8
grille2
  6
ByLayer
 62
  256
370
   -1
100
AcDbLine
 10
1000
 20
-100
 11
1000
 21
0
  0
LINE
  5
569
100
AcDbEntity
  8
grille2
  6
ByLayer
 62
  256
370
   -1
100
AcDbLine
 10
900
 20
-200
 11
1000
 21
-200
  0
LINE
  5
56A
100
AcDbEntity
  8
grille2
  6
ByLayer
 62
  256
370
   -1
100
AcDbLine
 10
1000
 20
-200
 11
1000
 21
-100
  0
LINE
  5
56B
100
AcDbEntity
  8
grille2
  6
ByLayer
 62
  256
370
   -1
100
AcDbLine
 10
900
 20
-300
 11
1000
 21
-300
  0
LINE
  5
56C
100
AcDbEntity
  8
grille2
  6
ByLayer
 62
  256
370
   -1
100
AcDbLine
 10
1000
 20
-300
 11
1000
 21
-200
  0
LINE
  5
56D
100
AcDbEntity
  8
grille2
  6
ByLayer
 62
  256
370
   -1
100
AcDbLine
 10
900
 20
-400
 11
1000
 21
-400
  0
LINE
  5
56E
100
AcDbEntity
  8
grille2
  6
ByLayer
 62
  256
370
   -1
100
AcDbLine
 10
1000
 20
-400
 11
1000
 21
-300
  0
LINE
  5
56F
100
AcDbEntity
  8
grille2
  6
ByLayer
 62
  256
370
   -1
100
AcDbLine
 10
900
 20
-500
 11
1000
 21
-500
  0
LINE
  5
570
100
AcDbEntity
  8
grille2
  6
ByLayer
 62
  256
370
   -1
100
AcDbLine
 10
1000
 20
-500
 11
1000
 21
-400
  0
LINE
  5
571
100
AcDbEntity
  8
grille2
  6
ByLayer
 62
  256
370
   -1
100
AcDbLine
 10
900
 20
-600
 11
1000
 21
-600
  0
LINE
  5
572
100
AcDbEntity
  8
grille2
  6
ByLayer
 62
  256
370
   -1
100
AcDbLine
 10
1000
 20
-600
 11
1000
 21
-500
  0
LINE
  5
573
100
AcDbEntity
  8
grille2
  6
ByLayer
 62
  256
370
   -1
100
AcDbLine
 10
900
 20
-700
 11
1000
 21
-700
  0
LINE
  5
574
100
AcDbEntity
  8
grille2
  6
ByLayer
 62
  256
370
   -1
100
AcDbLine
 10
1000
 20
-700
 11
1000
 21
-600
  0
LINE
  5
575
100
AcDbEntity
  8
grille2
  6
ByLayer
 62
  256
370
   -1
100
AcDbLine
 10
900
 20
-800
 11
1000
 21
-800
  0
LINE
  5
576
100
AcDbEntity
  8
grille2
  6
ByLayer
 62
  256
370
   -1
100
AcDbLine
 10
1000
 20
-800
 11
1000
 21
-700
  0
LINE
  5
577
100
AcDbEntity
  8
grille2
  6
ByLayer
 62
  256
370
   -1
100
AcDbLine
 10
900
 20
-900
 11
1000
 21
-900
  0
LINE
  5
578
100
AcDbEntity
  8
grille2
  6
ByLayer
 62
  256
370
   -1
100
AcDbLine
 10
1000
 20
-900
 11
1000
 21
-800
  0
LINE
  5
579
100
AcDbEntity
  8
grille2
  6
ByLayer
 62
  256
370
   -1
100
AcDbLine
 10
900
 20
-1000
 11
1000
 21
-1000
  0
LINE
  5
57A
100
AcDbEntity
  8
grille2
  6
ByLayer
 62
  256
370
   -1
100
AcDbLine
 10
1000
 20
-1000
 11
1000
 21
-900
  0
LINE
  5
57B
100
AcDbEntity
  8
grille2
  6
ByLayer
 62
  256
370
   -1
100
AcDbLine
 10
900
 20
-1100
 11
1000
 21
-1100
  0
LINE
  5
57C
100
AcDbEntity
  8
grille2
  6
ByLayer
 62
  256
370
   -1
100
AcDbLine
 10
1000
 20
-1100
 11
1000
 21
-1000
  0
LINE
  5
57D
100
AcDbEntity
  8
grille2
  6
ByLayer
 62
  256
370
   -1
100
AcDbLine
 10
900
 20
-1200
 11
1000
 21
-1200
  0
LINE
  5
57E
100
AcDbEntity
  8
grille2
  6
ByLayer
 62
  256
370
   -1
100
AcDbLine
 10
1000
 20
-1200
 11
1000
 21
-1100
  0
LINE
  5
57F
100
AcDbEntity
  8
grille2
  6
ByLayer
 62
  256
370
   -1
100
AcDbLine
 10
900
 20
-1300
 11
1000
 21
-1300
  0
LINE
  5
580
100
AcDbEntity
  8
grille2
  6
ByLayer
 62
  256
370
   -1
100
AcDbLine
 10
1000
 20
-1300
 11
1000
 21
-1200
  0
LINE
  5
581
100
AcDbEntity
  8
grille2
  6
ByLayer
 62
  256
370
   -1
100
AcDbLine
 10
900
 20
-1400
 11
1000
 21
-1400
  0
LINE
  5
582
100
AcDbEntity
  8
grille2
  6
ByLayer
 62
  256
370
   -1
100
AcDbLine
 10
1000
 20
-1400
 11
1000
 21
-1300
  0
LINE
  5
583
100
AcDbEntity
  8
grille2
  6
ByLayer
 62
  256
370
   -1
100
AcDbLine
 10
900
 20
-1500
 11
1000
 21
-1500
  0
LINE
  5
584
100
AcDbEntity
  8
grille2
  6
ByLayer
 62
  256
370
   -1
100
AcDbLine
 10
1000
 20
-1500
 11
1000
 21
-1400
  0
LINE
  5
585
100
AcDbEntity
  8
grille2
  6
ByLayer
 62
  256
370
   -1
100
AcDbLine
 10
900
 20
-1600
 11
1000
 21
-1600
  0
LINE
  5
586
100
AcDbEntity
  8
grille2
  6
ByLayer
 62
  256
370
   -1
100
AcDbLine
 10
1000
 20
-1600
 11
1000
 21
-1500
  0
LINE
  5
587
100
AcDbEntity
  8
grille2
  6
ByLayer
 62
  256
370
   -1
100
AcDbLine
 10
900
 20
-1700
 11
1000
 21
-1700
  0
LINE
  5
588
100
AcDbEntity
  8
grille2
  6
ByLayer
 62
  256
370
   -1
100
AcDbLine
 10
1000
 20
-1700
 11
1000
 21
-1600
  0
LINE
  5
589
100
AcDbEntity
  8
grille2
  6
ByLayer
 62
  256
370
   -1
100
AcDbLine
 10
900
 20
400
 11
1000
 21
400
  0
LINE
  5
58A
100
AcDbEntity
  8
grille2
  6
ByLayer
 62
  256
370
   -1
100
AcDbLine
 10
1000
 20
300
 11
1100
 21
300
  0
LINE
  5
58B
100
AcDbEntity
  8
grille2
  6
ByLayer
 62
  256
370
   -1
100
AcDbLine
 10
1100
 20
300
 11
1100
 21
400
  0
LINE
  5
58C
100
AcDbEntity
  8
grille2
  6
ByLayer
 62
  256
370
   -1
100
AcDbLine
 10
1000
 20
200
 11
1100
 21
200
  0
LINE
  5
58D
100
AcDbEntity
  8
grille2
  6
ByLayer
 62
  256
370
   -1
100
AcDbLine
 10
1100
 20
200
 11
1100
 21
300
  0
LINE
  5
58E
100
AcDbEntity
  8
grille2
  6
ByLayer
 62
  256
370
   -1
100
AcDbLine
 10
1000
 20
100
 11
1100
 21
100
  0
LINE
  5
58F
100
AcDbEntity
  8
grille2
  6
ByLayer
 62
  256
370
   -1
100
AcDbLine
 10
1100
 20
100
 11
1100
 21
200
  0
LINE
  5
590
100
AcDbEntity
  8
grille2
  6
ByLayer
 62
  256
370
   -1
100
AcDbLine
 10
1000
 20
0
 11
1100
 21
0
  0
LINE
  5
591
100
AcDbEntity
  8
grille2
  6
ByLayer
 62
  256
370
   -1
100
AcDbLine
 10
1100
 20
0
 11
1100
 21
100
  0
LINE
  5
592
100
AcDbEntity
  8
grille2
  6
ByLayer
 62
  256
370
   -1
100
AcDbLine
 10
1000
 20
-100
 11
1100
 21
-100
  0
LINE
  5
593
100
AcDbEntity
  8
grille2
  6
ByLayer
 62
  256
370
   -1
100
AcDbLine
 10
1100
 20
-100
 11
1100
 21
0
  0
LINE
  5
594
100
AcDbEntity
  8
grille2
  6
ByLayer
 62
  256
370
   -1
100
AcDbLine
 10
1000
 20
-200
 11
1100
 21
-200
  0
LINE
  5
595
100
AcDbEntity
  8
grille2
  6
ByLayer
 62
  256
370
   -1
100
AcDbLine
 10
1100
 20
-200
 11
1100
 21
-100
  0
LINE
  5
596
100
AcDbEntity
  8
grille2
  6
ByLayer
 62
  256
370
   -1
100
AcDbLine
 10
1000
 20
-300
 11
1100
 21
-300
  0
LINE
  5
597
100
AcDbEntity
  8
grille2
  6
ByLayer
 62
  256
370
   -1
100
AcDbLine
 10
1100
 20
-300
 11
1100
 21
-200
  0
LINE
  5
598
100
AcDbEntity
  8
grille2
  6
ByLayer
 62
  256
370
   -1
100
AcDbLine
 10
1000
 20
-400
 11
1100
 21
-400
  0
LINE
  5
599
100
AcDbEntity
  8
grille2
  6
ByLayer
 62
  256
370
   -1
100
AcDbLine
 10
1100
 20
-400
 11
1100
 21
-300
  0
LINE
  5
59A
100
AcDbEntity
  8
grille2
  6
ByLayer
 62
  256
370
   -1
100
AcDbLine
 10
1000
 20
-500
 11
1100
 21
-500
  0
LINE
  5
59B
100
AcDbEntity
  8
grille2
  6
ByLayer
 62
  256
370
   -1
100
AcDbLine
 10
1100
 20
-500
 11
1100
 21
-400
  0
LINE
  5
59C
100
AcDbEntity
  8
grille2
  6
ByLayer
 62
  256
370
   -1
100
AcDbLine
 10
1000
 20
-600
 11
1100
 21
-600
  0
LINE
  5
59D
100
AcDbEntity
  8
grille2
  6
ByLayer
 62
  256
370
   -1
100
AcDbLine
 10
1100
 20
-600
 11
1100
 21
-500
  0
LINE
  5
59E
100
AcDbEntity
  8
grille2
  6
ByLayer
 62
  256
370
   -1
100
AcDbLine
 10
1000
 20
-700
 11
1100
 21
-700
  0
LINE
  5
59F
100
AcDbEntity
  8
grille2
  6
ByLayer
 62
  256
370
   -1
100
AcDbLine
 10
1100
 20
-700
 11
1100
 21
-600
  0
LINE
  5
5A0
100
AcDbEntity
  8
grille2
  6
ByLayer
 62
  256
370
   -1
100
AcDbLine
 10
1000
 20
-800
 11
1100
 21
-800
  0
LINE
  5
5A1
100
AcDbEntity
  8
grille2
  6
ByLayer
 62
  256
370
   -1
100
AcDbLine
 10
1100
 20
-800
 11
1100
 21
-700
  0
LINE
  5
5A2
100
AcDbEntity
  8
grille2
  6
ByLayer
 62
  256
370
   -1
100
AcDbLine
 10
1000
 20
-900
 11
1100
 21
-900
  0
LINE
  5
5A3
100
AcDbEntity
  8
grille2
  6
ByLayer
 62
  256
370
   -1
100
AcDbLine
 10
1100
 20
-900
 11
1100
 21
-800
  0
LINE
  5
5A4
100
AcDbEntity
  8
grille2
  6
ByLayer
 62
  256
370
   -1
100
AcDbLine
 10
1000
 20
-1000
 11
1100
 21
-1000
  0
LINE
  5
5A5
100
AcDbEntity
  8
grille2
  6
ByLayer
 62
  256
370
   -1
100
AcDbLine
 10
1100
 20
-1000
 11
1100
 21
-900
  0
LINE
  5
5A6
100
AcDbEntity
  8
grille2
  6
ByLayer
 62
  256
370
   -1
100
AcDbLine
 10
1000
 20
-1100
 11
1100
 21
-1100
  0
LINE
  5
5A7
100
AcDbEntity
  8
grille2
  6
ByLayer
 62
  256
370
   -1
100
AcDbLine
 10
1100
 20
-1100
 11
1100
 21
-1000
  0
LINE
  5
5A8
100
AcDbEntity
  8
grille2
  6
ByLayer
 62
  256
370
   -1
100
AcDbLine
 10
1000
 20
-1200
 11
1100
 21
-1200
  0
LINE
  5
5A9
100
AcDbEntity
  8
grille2
  6
ByLayer
 62
  256
370
   -1
100
AcDbLine
 10
1100
 20
-1200
 11
1100
 21
-1100
  0
LINE
  5
5AA
100
AcDbEntity
  8
grille2
  6
ByLayer
 62
  256
370
   -1
100
AcDbLine
 10
1000
 20
-1300
 11
1100
 21
-1300
  0
LINE
  5
5AB
100
AcDbEntity
  8
grille2
  6
ByLayer
 62
  256
370
   -1
100
AcDbLine
 10
1100
 20
-1300
 11
1100
 21
-1200
  0
LINE
  5
5AC
100
AcDbEntity
  8
grille2
  6
ByLayer
 62
  256
370
   -1
100
AcDbLine
 10
1000
 20
-1400
 11
1100
 21
-1400
  0
LINE
  5
5AD
100
AcDbEntity
  8
grille2
  6
ByLayer
 62
  256
370
   -1
100
AcDbLine
 10
1100
 20
-1400
 11
1100
 21
-1300
  0
LINE
  5
5AE
100
AcDbEntity
  8
grille2
  6
ByLayer
 62
  256
370
   -1
100
AcDbLine
 10
1000
 20
-1500
 11
1100
 21
-1500
  0
LINE
  5
5AF
100
AcDbEntity
  8
grille2
  6
ByLayer
 62
  256
370
   -1
100
AcDbLine
 10
1100
 20
-1500
 11
1100
 21
-1400
  0
LINE
  5
5B0
100
AcDbEntity
  8
grille2
  6
ByLayer
 62
  256
370
   -1
100
AcDbLine
 10
1000
 20
-1600
 11
1100
 21
-1600
  0
LINE
  5
5B1
100
AcDbEntity
  8
grille2
  6
ByLayer
 62
  256
370
   -1
100
AcDbLine
 10
1100
 20
-1600
 11
1100
 21
-1500
  0
LINE
  5
5B2
100
AcDbEntity
  8
grille2
  6
ByLayer
 62
  256
370
   -1
100
AcDbLine
 10
1000
 20
-1700
 11
1100
 21
-1700
  0
LINE
  5
5B3
100
AcDbEntity
  8
grille2
  6
ByLayer
 62
  256
370
   -1
100
AcDbLine
 10
1100
 20
-1700
 11
1100
 21
-1600
  0
LINE
  5
5B4
100
AcDbEntity
  8
grille2
  6
ByLayer
 62
  256
370
   -1
100
AcDbLine
 10
1000
 20
400
 11
1100
 21
400
  0
LINE
  5
5B5
100
AcDbEntity
  8
courbes-reverse-traverses
  6
ByLayer
 62
  256
370
   -1
100
AcDbLine
 10
108.7096566758045
 20
-72.61823926617529
 11
112.7065728207674
 21
-72.46120000313903
  0
LINE
  5
5B6
100
AcDbEntity
  8
courbes-reverse-traverses
  6
ByLayer
 62
  256
370
   -1
100
AcDbLine
 10
112.7065728207674
 20
-72.46120000313903
 11
110.9202512037298
 21
-26.99627885418616
  0
LINE
  5
5B7
100
AcDbEntity
  8
courbes-reverse-traverses
  6
ByLayer
 62
  256
370
   -1
100
AcDbLine
 10
110.9202512037298
 20
-26.99627885418616
 11
106.9233350587669
 21
-27.15331811722243
  0
LINE
  5
5B8
100
AcDbEntity
  8
courbes-reverse-traverses
  6
ByLayer
 62
  256
370
   -1
100
AcDbLine
 10
106.9233350587669
 20
-27.15331811722243
 11
108.7096566758045
 21
-72.61823926617529
  0
LINE
  5
5B9
100
AcDbEntity
  8
courbes-reverse-traverses
  6
ByLayer
 62
  256
370
   -1
100
AcDbLine
 10
119.4058836923034
 20
-72.06612096716634
 11
123.393553027236
 21
-71.75228458425494
  0
LINE
  5
5BA
100
AcDbEntity
  8
courbes-reverse-traverses
  6
ByLayer
 62
  256
370
   -1
100
AcDbLine
 10
123.393553027236
 20
-71.75228458425494
 11
119.823664171619
 21
-26.39254589939762
  0
LINE
  5
5BB
100
AcDbEntity
  8
courbes-reverse-traverses
  6
ByLayer
 62
  256
370
   -1
100
AcDbLine
 10
119.823664171619
 20
-26.39254589939762
 11
115.8359948366865
 21
-26.70638228230902
  0
LINE
  5
5BC
100
AcDbEntity
  8
courbes-reverse-traverses
  6
ByLayer
 62
  256
370
   -1
100
AcDbLine
 10
115.8359948366865
 20
-26.70638228230902
 11
119.4058836923034
 21
-72.06612096716634
  0
LINE
  5
5BD
100
AcDbEntity
  8
courbes-reverse-traverses
  6
ByLayer
 62
  256
370
   -1
100
AcDbLine
 10
130.0721882427154
 20
-71.09449642937182
 11
134.0444620705351
 21
-70.62434683954052
  0
LINE
  5
5BE
100
AcDbEntity
  8
courbes-reverse-traverses
  6
ByLayer
 62
  256
370
   -1
100
AcDbLine
 10
134.0444620705351
 20
-70.62434683954052
 11
128.6965104862035
 21
-25.43973204809132
  0
LINE
  5
5BF
100
AcDbEntity
  8
courbes-reverse-traverses
  6
ByLayer
 62
  256
370
   -1
100
AcDbLine
 10
128.6965104862035
 20
-25.43973204809132
 11
124.7242366583837
 21
-25.90988163792267
  0
LINE
  5
5C0
100
AcDbEntity
  8
courbes-reverse-traverses
  6
ByLayer
 62
  256
370
   -1
100
AcDbLine
 10
124.7242366583837
 20
-25.90988163792267
 11
130.0721882427154
 21
-71.09449642937182
  0
LINE
  5
5C1
100
AcDbEntity
  8
courbes-reverse-traverses
  6
ByLayer
 62
  256
370
   -1
100
AcDbLine
 10
140.6921236585327
 20
-69.70486382740432
 11
144.6428770209133
 21
-69.07912596724339
  0
LINE
  5
5C2
100
AcDbEntity
  8
courbes-reverse-traverses
  6
ByLayer
 62
  256
370
   -1
100
AcDbLine
 10
144.6428770209133
 20
-69.07912596724339
 11
137.5251088615827
 21
-24.1393064701646
  0
LINE
  5
5C3
100
AcDbEntity
  8
courbes-reverse-traverses
  6
ByLayer
 62
  256
370
   -1
100
AcDbLine
 10
137.5251088615827
 20
-24.1393064701646
 11
133.5743554992022
 21
-24.76504433032554
  0
LINE
  5
5C4
100
AcDbEntity
  8
courbes-reverse-traverses
  6
ByLayer
 62
  256
370
   -1
100
AcDbLine
 10
133.5743554992022
 20
-24.76504433032554
 11
140.6921236585327
 21
-69.70486382740432
  0
LINE
  5
5C5
100
AcDbEntity
  8
courbes-reverse-traverses
  6
ByLayer
 62
  256
370
   -1
100
AcDbLine
 10
151.2493147690925
 20
-67.89936587401337
 11
155.1724558907054
 21
-67.1190045859488
  0
LINE
  5
5C6
100
AcDbEntity
  8
courbes-reverse-traverses
  6
ByLayer
 62
  256
370
   -1
100
AcDbLine
 10
155.1724558907054
 20
-67.1190045859488
 11
146.2958462389716
 21
-22.49327432760185
  0
LINE
  5
5C7
100
AcDbEntity
  8
courbes-reverse-traverses
  6
ByLayer
 62
  256
370
   -1
100
AcDbLine
 10
146.2958462389716
 20
-22.49327432760185
 11
142.3727051173587
 21
-23.27363561566636
  0
LINE
  5
5C8
100
AcDbEntity
  8
courbes-reverse-traverses
  6
ByLayer
 62
  256
370
   -1
100
AcDbLine
 10
142.3727051173587
 20
-23.27363561566636
 11
151.2493147690925
 21
-67.89936587401337
  0
LINE
  5
5C9
100
AcDbEntity
  8
courbes-reverse-traverses
  6
ByLayer
 62
  256
370
   -1
100
AcDbLine
 10
161.7274831509029
 20
-65.6807865161781
 11
165.6169628324936
 21
-64.74700506075447
  0
LINE
  5
5CA
100
AcDbEntity
  8
courbes-reverse-traverses
  6
ByLayer
 62
  256
370
   -1
100
AcDbLine
 10
165.6169628324936
 20
-64.74700506075447
 11
154.9951987770498
 21
-20.50417368266019
  0
LINE
  5
5CB
100
AcDbEntity
  8
courbes-reverse-traverses
  6
ByLayer
 62
  256
370
   -1
100
AcDbLine
 10
154.9951987770498
 20
-20.50417368266019
 11
151.1057190954592
 21
-21.43795513808382
  0
LINE
  5
5CC
100
AcDbEntity
  8
courbes-reverse-traverses
  6
ByLayer
 62
  256
370
   -1
100
AcDbLine
 10
151.1057190954592
 20
-21.43795513808382
 11
161.7274831509029
 21
-65.6807865161781
  0
LINE
  5
5CD
100
AcDbEntity
  8
courbes-reverse-traverses
  6
ByLayer
 62
  256
370
   -1
100
AcDbLine
 10
172.1104722277917
 20
-63.05254664246246
 11
175.9602931736063
 21
-61.96678484300213
  0
LINE
  5
5CE
100
AcDbEntity
  8
courbes-reverse-traverses
  6
ByLayer
 62
  256
370
   -1
100
AcDbLine
 10
175.9602931736063
 20
-61.96678484300213
 11
163.6097527047454
 21
-18.17507158436121
  0
LINE
  5
5CF
100
AcDbEntity
  8
courbes-reverse-traverses
  6
ByLayer
 62
  256
370
   -1
100
AcDbLine
 10
163.6097527047454
 20
-18.17507158436121
 11
159.7599317589308
 21
-19.26083338382148
  0
LINE
  5
5D0
100
AcDbEntity
  8
courbes-reverse-traverses
  6
ByLayer
 62
  256
370
   -1
100
AcDbLine
 10
159.7599317589308
 20
-19.26083338382148
 11
172.1104722277917
 21
-63.05254664246246
  0
LINE
  5
5D1
100
AcDbEntity
  8
courbes-reverse-traverses
  6
ByLayer
 62
  256
370
   -1
100
AcDbLine
 10
182.3822721831766
 20
-60.01869880825302
 11
186.1864982483572
 21
-58.78263083075319
  0
LINE
  5
5D2
100
AcDbEntity
  8
courbes-reverse-traverses
  6
ByLayer
 62
  256
370
   -1
100
AcDbLine
 10
186.1864982483572
 20
-58.78263083075319
 11
172.1262250042971
 21
-15.50955933932374
  0
LINE
  5
5D3
100
AcDbEntity
  8
courbes-reverse-traverses
  6
ByLayer
 62
  256
370
   -1
100
AcDbLine
 10
172.1262250042971
 20
-15.50955933932374
 11
168.3219989391165
 21
-16.74562731682352
  0
LINE
  5
5D4
100
AcDbEntity
  8
courbes-reverse-traverses
  6
ByLayer
 62
  256
370
   -1
100
AcDbLine
 10
168.3219989391165
 20
-16.74562731682352
 11
182.3822721831766
 21
-60.01869880825302
  0
LINE
  5
5D5
100
AcDbEntity
  8
courbes-reverse-traverses
  6
ByLayer
 62
  256
370
   -1
100
AcDbLine
 10
192.5270446460412
 20
-56.58392098701256
 11
196.2798099897312
 21
-55.19945275870256
  0
LINE
  5
5D6
100
AcDbEntity
  8
courbes-reverse-traverses
  6
ByLayer
 62
  256
370
   -1
100
AcDbLine
 10
196.2798099897312
 20
-55.19945275870256
 11
180.5314838927052
 21
-12.51174697422954
  0
LINE
  5
5D7
100
AcDbEntity
  8
courbes-reverse-traverses
  6
ByLayer
 62
  256
370
   -1
100
AcDbLine
 10
180.5314838927052
 20
-12.51174697422954
 11
176.7787185490153
 21
-13.89621520253951
  0
LINE
  5
5D8
100
AcDbEntity
  8
courbes-reverse-traverses
  6
ByLayer
 62
  256
370
   -1
100
AcDbLine
 10
176.7787185490153
 20
-13.89621520253951
 11
192.5270446460412
 21
-56.58392098701256
  0
LINE
  5
5D9
100
AcDbEntity
  8
courbes-reverse-traverses
  6
ByLayer
 62
  256
370
   -1
100
AcDbLine
 10
185.1170509399441
 20
-10.71699062792007
 11
186.9648100049666
 21
-9.9516237631899
  0
LINE
  5
5DA
100
AcDbEntity
  8
courbes-reverse-traverses
  6
ByLayer
 62
  256
370
   -1
100
AcDbLine
 10
202.5291471125557
 20
-52.75350935718362
 11
204.3769061775782
 21
-51.98814249245345
  0
LINE
  5
5DB
100
AcDbEntity
  8
courbes-reverse-traverses
  6
ByLayer
 62
  256
370
   -1
100
AcDbLine
 10
199.5785418813863
 20
-34.65498928592382
 11
201.6110768529111
 21
-33.8130857347206
  0
LINE
  5
5DC
100
AcDbEntity
  8
courbes-reverse-traverses
  6
ByLayer
 62
  256
370
   -1
100
AcDbLine
 10
199.5785418813863
 20
-34.65498928592382
 11
198.430491584291
 21
-31.88335068838995
  0
LINE
  5
5DD
100
AcDbEntity
  8
courbes-reverse-traverses
  6
ByLayer
 62
  256
370
   -1
100
AcDbLine
 10
201.6110768529111
 20
-33.8130857347206
 11
197.8607792157332
 21
-24.75906631610997
  0
LINE
  5
5DE
100
AcDbEntity
  8
courbes-reverse-traverses
  6
ByLayer
 62
  256
370
   -1
100
AcDbLine
 10
195.8282442442083
 20
-25.60096986731318
 11
197.8607792157332
 21
-24.75906631610997
  0
LINE
  5
5DF
100
AcDbEntity
  8
courbes-reverse-traverses
  6
ByLayer
 62
  256
370
   -1
100
AcDbLine
 10
196.9762945413036
 20
-28.37260846484705
 11
195.8282442442083
 21
-25.60096986731318
  0
LINE
  5
5E0
100
AcDbEntity
  8
courbes-reverse-traverses
  6
ByLayer
 62
  256
370
   -1
100
AcDbLine
 10
204.3769061775782
 20
-51.98814249245345
 11
196.3979566127661
 21
-32.72525423959314
  0
LINE
  5
5E1
100
AcDbEntity
  8
courbes-reverse-traverses
  6
ByLayer
 62
  256
370
   -1
100
AcDbLine
 10
196.3979566127661
 20
-32.72525423959314
 11
198.430491584291
 21
-31.88335068838995
  0
LINE
  5
5E2
100
AcDbEntity
  8
courbes-reverse-traverses
  6
ByLayer
 62
  256
370
   -1
100
AcDbLine
 10
194.9437595697788
 20
-29.21451201605024
 11
196.9762945413036
 21
-28.37260846484705
  0
LINE
  5
5E3
100
AcDbEntity
  8
courbes-reverse-traverses
  6
ByLayer
 62
  256
370
   -1
100
AcDbLine
 10
202.5291471125557
 20
-52.75350935718362
 11
185.1170509399441
 21
-10.71699062792007
  0
LINE
  5
5E4
100
AcDbEntity
  8
courbes-reverse-traverses
  6
ByLayer
 62
  256
370
   -1
100
AcDbLine
 10
102
 20
-52
 11
100
 21
-52
  0
LINE
  5
5E5
100
AcDbEntity
  8
courbes-reverse-traverses
  6
ByLayer
 62
  256
370
   -1
100
AcDbLine
 10
102
 20
-48
 11
100
 21
-48
  0
LINE
  5
5E6
100
AcDbEntity
  8
courbes-reverse-traverses
  6
ByLayer
 62
  256
370
   -1
100
AcDbLine
 10
100
 20
-72.9604426089677
 11
100
 21
-52
  0
LINE
  5
5E7
100
AcDbEntity
  8
courbes-reverse-traverses
  6
ByLayer
 62
  256
370
   -1
100
AcDbLine
 10
102
 20
-72.9604426089677
 11
102
 21
-52
  0
LINE
  5
5E8
100
AcDbEntity
  8
courbes-reverse-traverses
  6
ByLayer
 62
  256
370
   -1
100
AcDbLine
 10
100
 20
-72.9604426089677
 11
102
 21
-72.9604426089677
  0
LINE
  5
5E9
100
AcDbEntity
  8
courbes-reverse-traverses
  6
ByLayer
 62
  256
370
   -1
100
AcDbLine
 10
100
 20
-27.42533669253131
 11
102
 21
-27.34675647851598
  0
LINE
  5
5EA
100
AcDbEntity
  8
courbes-reverse-traverses
  6
ByLayer
 62
  256
370
   -1
100
AcDbLine
 10
102
 20
-48
 11
102
 21
-27.34675647851598
  0
LINE
  5
5EB
100
AcDbEntity
  8
courbes-reverse-traverses
  6
ByLayer
 62
  256
370
   -1
100
AcDbLine
 10
194.9437595697788
 20
-29.21451201605024
 11
186.9648100049666
 21
-9.9516237631899
  0
LINE
  5
5EC
100
AcDbEntity
  8
courbes-reverse-traverses
  6
ByLayer
 62
  256
370
   -1
100
AcDbLine
 10
100
 20
-48
 11
100
 21
-27.42533669253131
  0
ARC
  5
5ED
100
AcDbEntity
  8
courbes-reverse-rails
  6
ByLayer
 62
  256
370
   -1
100
AcDbCircle
 10
100
 20
200
 40
238.04
100
AcDbArc
 50
270
 51
292.5
  0
ARC
  5
5EE
100
AcDbEntity
  8
courbes-reverse-rails
  6
ByLayer
 62
  256
370
   -1
100
AcDbCircle
 10
100
 20
200
 40
263.46
100
AcDbArc
 50
270
 51
292.5
  0
ARC
  5
5EF
100
AcDbEntity
  8
courbes-reverse-rails
  6
ByLayer
 62
  256
370
   -1
100
AcDbCircle
 10
100
 20
200
 40
261.96
100
AcDbArc
 50
270
 51
292.5
  0
ARC
  5
5F0
100
AcDbEntity
  8
courbes-reverse-rails
  6
ByLayer
 62
  256
370
   -1
100
AcDbCircle
 10
100
 20
200
 40
236.54
100
AcDbArc
 50
270
 51
292.5
  0
LINE
  5
5F1
100
AcDbEntity
  8
courbes-reverse-rails
  6
ByLayer
 62
  256
370
   -1
100
AcDbLine
 10
100
 20
-61.95999999999998
 11
100
 21
-63.45999999999998
  0
LINE
  5
5F2
100
AcDbEntity
  8
courbes-reverse-rails
  6
ByLayer
 62
  256
370
   -1
100
AcDbLine
 10
100
 20
-38.03999999999999
 11
100
 21
-36.53999999999999
  0
LINE
  5
5F3
100
AcDbEntity
  8
courbes-reverse-rails
  6
ByLayer
 62
  256
370
   -1
100
AcDbLine
 10
200.8217770909066
 20
-43.4053016354236
 11
200.2477519423589
 21
-42.01948233665667
  0
LINE
  5
5F4
100
AcDbEntity
  8
courbes-reverse-rails
  6
ByLayer
 62
  256
370
   -1
100
AcDbLine
 10
191.093964240186
 20
-19.92028391898668
 11
190.5199390916383
 21
-18.53446462021975
  0
LINE
  5
5F5
100
AcDbEntity
  8
cross90-traverses
  6
ByLayer
 62
  256
370
   -1
100
AcDbLine
 10
88.00000000000001
 20
27.25
 11
92.00000000000001
 21
27.25
  0
LINE
  5
5F6
100
AcDbEntity
  8
cross90-traverses
  6
ByLayer
 62
  256
370
   -1
100
AcDbLine
 10
-3.996802888650564e-15
 20
27.25
 11
1.999999999999996
 21
27.25
  0
LINE
  5
5F7
100
AcDbEntity
  8
cross90-traverses
  6
ByLayer
 62
  256
370
   -1
100
AcDbLine
 10
98
 20
27.25
 11
100
 21
27.25
  0
LINE
  5
5F8
100
AcDbEntity
  8
cross90-traverses
  6
ByLayer
 62
  256
370
   -1
100
AcDbLine
 10
88.00000000000001
 20
72.75
 11
92.00000000000001
 21
72.75
  0
LINE
  5
5F9
100
AcDbEntity
  8
cross90-traverses
  6
ByLayer
 62
  256
370
   -1
100
AcDbLine
 10
2.220446049250313e-15
 20
72.75
 11
2.000000000000002
 21
72.75
  0
LINE
  5
5FA
100
AcDbEntity
  8
cross90-traverses
  6
ByLayer
 62
  256
370
   -1
100
AcDbLine
 10
98
 20
72.75
 11
100
 21
72.75
  0
LINE
  5
5FB
100
AcDbEntity
  8
cross90-traverses
  6
ByLayer
 62
  256
370
   -1
100
AcDbLine
 10
-1.110223024625157e-15
 20
48
 11
1.999999999999998
 21
48
  0
LINE
  5
5FC
100
AcDbEntity
  8
cross90-traverses
  6
ByLayer
 62
  256
370
   -1
100
AcDbLine
 10
-1.110223024625157e-15
 20
52
 11
2
 21
52
  0
LINE
  5
5FD
100
AcDbEntity
  8
cross90-traverses
  6
ByLayer
 62
  256
370
   -1
100
AcDbLine
 10
2.220446049250313e-15
 20
72.75
 11
-1.110223024625157e-15
 21
52
  0
LINE
  5
5FE
100
AcDbEntity
  8
cross90-traverses
  6
ByLayer
 62
  256
370
   -1
100
AcDbLine
 10
-1.110223024625157e-15
 20
48
 11
-3.996802888650564e-15
 21
27.25
  0
LINE
  5
5FF
100
AcDbEntity
  8
cross90-traverses
  6
ByLayer
 62
  256
370
   -1
100
AcDbLine
 10
102.2
 20
54.9
 11
104.4
 21
54.9
  0
LINE
  5
600
100
AcDbEntity
  8
cross90-traverses
  6
ByLayer
 62
  256
370
   -1
100
AcDbLine
 10
102.2
 20
54.9
 11
102.2
 21
51.9
  0
LINE
  5
601
100
AcDbEntity
  8
cross90-traverses
  6
ByLayer
 62
  256
370
   -1
100
AcDbLine
 10
104.4
 20
54.9
 11
104.4
 21
45.09999999999999
  0
LINE
  5
602
100
AcDbEntity
  8
cross90-traverses
  6
ByLayer
 62
  256
370
   -1
100
AcDbLine
 10
102.2
 20
45.09999999999999
 11
104.4
 21
45.09999999999999
  0
LINE
  5
603
100
AcDbEntity
  8
cross90-traverses
  6
ByLayer
 62
  256
370
   -1
100
AcDbLine
 10
102.2
 20
48.1
 11
102.2
 21
45.09999999999999
  0
LINE
  5
604
100
AcDbEntity
  8
cross90-traverses
  6
ByLayer
 62
  256
370
   -1
100
AcDbLine
 10
100
 20
72.75
 11
100
 21
51.9
  0
LINE
  5
605
100
AcDbEntity
  8
cross90-traverses
  6
ByLayer
 62
  256
370
   -1
100
AcDbLine
 10
100
 20
51.9
 11
102.2
 21
51.9
  0
LINE
  5
606
100
AcDbEntity
  8
cross90-traverses
  6
ByLayer
 62
  256
370
   -1
100
AcDbLine
 10
100
 20
48.1
 11
100
 21
27.25
  0
LINE
  5
607
100
AcDbEntity
  8
cross90-traverses
  6
ByLayer
 62
  256
370
   -1
100
AcDbLine
 10
100
 20
48.1
 11
102.2
 21
48.1
  0
LINE
  5
608
100
AcDbEntity
  8
cross90-traverses
  6
ByLayer
 62
  256
370
   -1
100
AcDbLine
 10
100
 20
48
 11
102
 21
48
  0
LINE
  5
609
100
AcDbEntity
  8
cross90-traverses
  6
ByLayer
 62
  256
370
   -1
100
AcDbLine
 10
100
 20
72.75
 11
100
 21
52
  0
LINE
  5
60A
100
AcDbEntity
  8
cross90-traverses
  6
ByLayer
 62
  256
370
   -1
100
AcDbLine
 10
100
 20
48
 11
100
 21
27.25
  0
LINE
  5
60B
100
AcDbEntity
  8
cross90-traverses
  6
ByLayer
 62
  256
370
   -1
100
AcDbLine
 10
98
 20
72.75
 11
98
 21
27.25
  0
LINE
  5
60C
100
AcDbEntity
  8
cross90-traverses
  6
ByLayer
 62
  256
370
   -1
100
AcDbLine
 10
88.00000000000001
 20
72.75
 11
88.00000000000001
 21
27.25
  0
LINE
  5
60D
100
AcDbEntity
  8
cross90-traverses
  6
ByLayer
 62
  256
370
   -1
100
AcDbLine
 10
92.00000000000001
 20
27.25
 11
92.00000000000001
 21
72.75
  0
LINE
  5
60E
100
AcDbEntity
  8
cross90-traverses
  6
ByLayer
 62
  256
370
   -1
100
AcDbLine
 10
2.000000000000002
 20
72.75
 11
2
 21
52
  0
LINE
  5
60F
100
AcDbEntity
  8
cross90-traverses
  6
ByLayer
 62
  256
370
   -1
100
AcDbLine
 10
1.999999999999998
 20
48
 11
1.999999999999996
 21
27.25
  0
LINE
  5
610
100
AcDbEntity
  8
cross90-traverses
  6
ByLayer
 62
  256
370
   -1
100
AcDbLine
 10
78.00000000000001
 20
27.25
 11
82.00000000000001
 21
27.25
  0
LINE
  5
611
100
AcDbEntity
  8
cross90-traverses
  6
ByLayer
 62
  256
370
   -1
100
AcDbLine
 10
78.00000000000001
 20
72.75
 11
82.00000000000001
 21
72.75
  0
LINE
  5
612
100
AcDbEntity
  8
cross90-traverses
  6
ByLayer
 62
  256
370
   -1
100
AcDbLine
 10
78.00000000000001
 20
72.75
 11
78.00000000000001
 21
27.25
  0
LINE
  5
613
100
AcDbEntity
  8
cross90-traverses
  6
ByLayer
 62
  256
370
   -1
100
AcDbLine
 10
82.00000000000001
 20
27.25
 11
82.00000000000001
 21
72.75
  0
LINE
  5
614
100
AcDbEntity
  8
cross90-traverses
  6
ByLayer
 62
  256
370
   -1
100
AcDbLine
 10
18.00000000000001
 20
27.25
 11
22.00000000000001
 21
27.25
  0
LINE
  5
615
100
AcDbEntity
  8
cross90-traverses
  6
ByLayer
 62
  256
370
   -1
100
AcDbLine
 10
18.00000000000001
 20
72.75
 11
22.00000000000001
 21
72.75
  0
LINE
  5
616
100
AcDbEntity
  8
cross90-traverses
  6
ByLayer
 62
  256
370
   -1
100
AcDbLine
 10
18.00000000000001
 20
72.75
 11
18.00000000000001
 21
27.25
  0
LINE
  5
617
100
AcDbEntity
  8
cross90-traverses
  6
ByLayer
 62
  256
370
   -1
100
AcDbLine
 10
22.00000000000001
 20
27.25
 11
22.00000000000001
 21
72.75
  0
LINE
  5
618
100
AcDbEntity
  8
cross90-traverses
  6
ByLayer
 62
  256
370
   -1
100
AcDbLine
 10
8.000000000000014
 20
27.25
 11
12.00000000000001
 21
27.25
  0
LINE
  5
619
100
AcDbEntity
  8
cross90-traverses
  6
ByLayer
 62
  256
370
   -1
100
AcDbLine
 10
8.000000000000014
 20
72.75
 11
12.00000000000001
 21
72.75
  0
LINE
  5
61A
100
AcDbEntity
  8
cross90-traverses
  6
ByLayer
 62
  256
370
   -1
100
AcDbLine
 10
8.000000000000014
 20
72.75
 11
8.000000000000014
 21
27.25
  0
LINE
  5
61B
100
AcDbEntity
  8
cross90-traverses
  6
ByLayer
 62
  256
370
   -1
100
AcDbLine
 10
12.00000000000001
 20
27.25
 11
12.00000000000001
 21
72.75
  0
LINE
  5
61C
100
AcDbEntity
  8
cross90-traverses
  6
ByLayer
 62
  256
370
   -1
100
AcDbLine
 10
72.75
 20
88.00000000000001
 11
72.75
 21
92.00000000000001
  0
LINE
  5
61D
100
AcDbEntity
  8
cross90-traverses
  6
ByLayer
 62
  256
370
   -1
100
AcDbLine
 10
72.75
 20
-7.105427357601002e-15
 11
72.75
 21
1.999999999999993
  0
LINE
  5
61E
100
AcDbEntity
  8
cross90-traverses
  6
ByLayer
 62
  256
370
   -1
100
AcDbLine
 10
72.75
 20
98
 11
72.75
 21
100
  0
LINE
  5
61F
100
AcDbEntity
  8
cross90-traverses
  6
ByLayer
 62
  256
370
   -1
100
AcDbLine
 10
27.25
 20
88.00000000000001
 11
27.25
 21
92.00000000000001
  0
LINE
  5
620
100
AcDbEntity
  8
cross90-traverses
  6
ByLayer
 62
  256
370
   -1
100
AcDbLine
 10
27.25
 20
0
 11
27.25
 21
2
  0
LINE
  5
621
100
AcDbEntity
  8
cross90-traverses
  6
ByLayer
 62
  256
370
   -1
100
AcDbLine
 10
27.25
 20
98
 11
27.25
 21
100
  0
LINE
  5
622
100
AcDbEntity
  8
cross90-traverses
  6
ByLayer
 62
  256
370
   -1
100
AcDbLine
 10
52
 20
0
 11
52
 21
2
  0
LINE
  5
623
100
AcDbEntity
  8
cross90-traverses
  6
ByLayer
 62
  256
370
   -1
100
AcDbLine
 10
48
 20
0
 11
48
 21
2
  0
LINE
  5
624
100
AcDbEntity
  8
cross90-traverses
  6
ByLayer
 62
  256
370
   -1
100
AcDbLine
 10
27.25
 20
0
 11
48
 21
0
  0
LINE
  5
625
100
AcDbEntity
  8
cross90-traverses
  6
ByLayer
 62
  256
370
   -1
100
AcDbLine
 10
52
 20
0
 11
72.75
 21
-7.105427357601002e-15
  0
LINE
  5
626
100
AcDbEntity
  8
cross90-traverses
  6
ByLayer
 62
  256
370
   -1
100
AcDbLine
 10
45.10000000000001
 20
102.2
 11
45.10000000000001
 21
104.4
  0
LINE
  5
627
100
AcDbEntity
  8
cross90-traverses
  6
ByLayer
 62
  256
370
   -1
100
AcDbLine
 10
45.10000000000001
 20
102.2
 11
48.1
 21
102.2
  0
LINE
  5
628
100
AcDbEntity
  8
cross90-traverses
  6
ByLayer
 62
  256
370
   -1
100
AcDbLine
 10
45.10000000000001
 20
104.4
 11
54.90000000000002
 21
104.4
  0
LINE
  5
629
100
AcDbEntity
  8
cross90-traverses
  6
ByLayer
 62
  256
370
   -1
100
AcDbLine
 10
54.90000000000002
 20
102.2
 11
54.90000000000002
 21
104.4
  0
LINE
  5
62A
100
AcDbEntity
  8
cross90-traverses
  6
ByLayer
 62
  256
370
   -1
100
AcDbLine
 10
51.9
 20
102.2
 11
54.90000000000002
 21
102.2
  0
LINE
  5
62B
100
AcDbEntity
  8
cross90-traverses
  6
ByLayer
 62
  256
370
   -1
100
AcDbLine
 10
27.25
 20
100
 11
48.1
 21
100
  0
LINE
  5
62C
100
AcDbEntity
  8
cross90-traverses
  6
ByLayer
 62
  256
370
   -1
100
AcDbLine
 10
48.1
 20
100
 11
48.1
 21
102.2
  0
LINE
  5
62D
100
AcDbEntity
  8
cross90-traverses
  6
ByLayer
 62
  256
370
   -1
100
AcDbLine
 10
51.9
 20
100
 11
72.75
 21
100
  0
LINE
  5
62E
100
AcDbEntity
  8
cross90-traverses
  6
ByLayer
 62
  256
370
   -1
100
AcDbLine
 10
51.9
 20
100
 11
51.9
 21
102.2
  0
LINE
  5
62F
100
AcDbEntity
  8
cross90-traverses
  6
ByLayer
 62
  256
370
   -1
100
AcDbLine
 10
52
 20
100
 11
52
 21
102
  0
LINE
  5
630
100
AcDbEntity
  8
cross90-traverses
  6
ByLayer
 62
  256
370
   -1
100
AcDbLine
 10
27.25
 20
100
 11
48
 21
100
  0
LINE
  5
631
100
AcDbEntity
  8
cross90-traverses
  6
ByLayer
 62
  256
370
   -1
100
AcDbLine
 10
52
 20
100
 11
72.75
 21
100
  0
LINE
  5
632
100
AcDbEntity
  8
cross90-traverses
  6
ByLayer
 62
  256
370
   -1
100
AcDbLine
 10
27.25
 20
98
 11
72.75
 21
98
  0
LINE
  5
633
100
AcDbEntity
  8
cross90-traverses
  6
ByLayer
 62
  256
370
   -1
100
AcDbLine
 10
27.25
 20
88.00000000000001
 11
72.75
 21
88.00000000000001
  0
LINE
  5
634
100
AcDbEntity
  8
cross90-traverses
  6
ByLayer
 62
  256
370
   -1
100
AcDbLine
 10
72.75
 20
92.00000000000001
 11
27.25
 21
92.00000000000001
  0
LINE
  5
635
100
AcDbEntity
  8
cross90-traverses
  6
ByLayer
 62
  256
370
   -1
100
AcDbLine
 10
27.25
 20
2
 11
48
 21
2
  0
LINE
  5
636
100
AcDbEntity
  8
cross90-traverses
  6
ByLayer
 62
  256
370
   -1
100
AcDbLine
 10
52
 20
2
 11
72.75
 21
1.999999999999993
  0
LINE
  5
637
100
AcDbEntity
  8
cross90-traverses
  6
ByLayer
 62
  256
370
   -1
100
AcDbLine
 10
72.75
 20
78.00000000000001
 11
72.75
 21
82.00000000000001
  0
LINE
  5
638
100
AcDbEntity
  8
cross90-traverses
  6
ByLayer
 62
  256
370
   -1
100
AcDbLine
 10
27.25
 20
78.00000000000001
 11
27.25
 21
82.00000000000001
  0
LINE
  5
639
100
AcDbEntity
  8
cross90-traverses
  6
ByLayer
 62
  256
370
   -1
100
AcDbLine
 10
27.25
 20
78.00000000000001
 11
72.75
 21
78.00000000000001
  0
LINE
  5
63A
100
AcDbEntity
  8
cross90-traverses
  6
ByLayer
 62
  256
370
   -1
100
AcDbLine
 10
72.75
 20
82.00000000000001
 11
27.25
 21
82.00000000000001
  0
LINE
  5
63B
100
AcDbEntity
  8
cross90-traverses
  6
ByLayer
 62
  256
370
   -1
100
AcDbLine
 10
72.75
 20
18.00000000000001
 11
72.75
 21
22.00000000000001
  0
LINE
  5
63C
100
AcDbEntity
  8
cross90-traverses
  6
ByLayer
 62
  256
370
   -1
100
AcDbLine
 10
27.25
 20
18.00000000000001
 11
27.25
 21
22.00000000000001
  0
LINE
  5
63D
100
AcDbEntity
  8
cross90-traverses
  6
ByLayer
 62
  256
370
   -1
100
AcDbLine
 10
27.25
 20
18.00000000000001
 11
72.75
 21
18.00000000000001
  0
LINE
  5
63E
100
AcDbEntity
  8
cross90-traverses
  6
ByLayer
 62
  256
370
   -1
100
AcDbLine
 10
72.75
 20
22.00000000000001
 11
27.25
 21
22.00000000000001
  0
LINE
  5
63F
100
AcDbEntity
  8
cross90-traverses
  6
ByLayer
 62
  256
370
   -1
100
AcDbLine
 10
72.75
 20
8.000000000000014
 11
72.75
 21
12.00000000000001
  0
LINE
  5
640
100
AcDbEntity
  8
cross90-traverses
  6
ByLayer
 62
  256
370
   -1
100
AcDbLine
 10
27.25
 20
8.000000000000014
 11
27.25
 21
12.00000000000001
  0
LINE
  5
641
100
AcDbEntity
  8
cross90-traverses
  6
ByLayer
 62
  256
370
   -1
100
AcDbLine
 10
27.25
 20
8.000000000000014
 11
72.75
 21
8.000000000000014
  0
LINE
  5
642
100
AcDbEntity
  8
cross90-traverses
  6
ByLayer
 62
  256
370
   -1
100
AcDbLine
 10
72.75
 20
12.00000000000001
 11
27.25
 21
12.00000000000001
  0
LINE
  5
643
100
AcDbEntity
  8
cross90-traverses
  6
ByLayer
 62
  256
370
   -1
100
AcDbLine
 10
72.00000000000001
 20
72.00000000000001
 11
28.00000000000001
 21
72.00000000000001
  0
LINE
  5
644
100
AcDbEntity
  8
cross90-traverses
  6
ByLayer
 62
  256
370
   -1
100
AcDbLine
 10
72.00000000000001
 20
28.00000000000001
 11
72.00000000000001
 21
72.00000000000001
  0
LINE
  5
645
100
AcDbEntity
  8
cross90-traverses
  6
ByLayer
 62
  256
370
   -1
100
AcDbLine
 10
28.00000000000001
 20
72.00000000000001
 11
28.00000000000002
 21
28.00000000000002
  0
LINE
  5
646
100
AcDbEntity
  8
cross90-traverses
  6
ByLayer
 62
  256
370
   -1
100
AcDbLine
 10
28.00000000000002
 20
28.00000000000002
 11
72.00000000000001
 21
28.00000000000001
  0
LINE
  5
647
100
AcDbEntity
  8
cross90-rails
  6
ByLayer
 62
  256
370
   -1
100
AcDbLine
 10
7.292693891875121e-16
 20
63.46
 11
1.332267629550188e-15
 21
61.96
  0
LINE
  5
648
100
AcDbEntity
  8
cross90-rails
  6
ByLayer
 62
  256
370
   -1
100
AcDbLine
 10
100
 20
63.46
 11
100
 21
61.96
  0
LINE
  5
649
100
AcDbEntity
  8
cross90-rails
  6
ByLayer
 62
  256
370
   -1
100
AcDbLine
 10
100
 20
38.04
 11
100
 21
36.54
  0
LINE
  5
64A
100
AcDbEntity
  8
cross90-rails
  6
ByLayer
 62
  256
370
   -1
100
AcDbLine
 10
-1.554312234475219e-15
 20
38.04
 11
-2.664535259100376e-15
 21
36.54
  0
LINE
  5
64B
100
AcDbEntity
  8
cross90-rails
  6
ByLayer
 62
  256
370
   -1
100
AcDbLine
 10
36.54000000000002
 20
0
 11
38.04000000000002
 21
0
  0
LINE
  5
64C
100
AcDbEntity
  8
cross90-rails
  6
ByLayer
 62
  256
370
   -1
100
AcDbLine
 10
36.54000000000003
 20
100
 11
38.04000000000003
 21
100
  0
LINE
  5
64D
100
AcDbEntity
  8
cross90-rails
  6
ByLayer
 62
  256
370
   -1
100
AcDbLine
 10
61.96000000000004
 20
100
 11
63.46000000000004
 21
100
  0
LINE
  5
64E
100
AcDbEntity
  8
cross90-rails
  6
ByLayer
 62
  256
370
   -1
100
AcDbLine
 10
61.96000000000002
 20
0
 11
63.46000000000002
 21
0
  0
LINE
  5
64F
100
AcDbEntity
  8
cross90-rails
  6
ByLayer
 62
  256
370
   -1
100
AcDbLine
 10
1.332267629550188e-15
 20
61.96
 11
38.04000000000003
 21
61.96
  0
LINE
  5
650
100
AcDbEntity
  8
cross90-rails
  6
ByLayer
 62
  256
370
   -1
100
AcDbLine
 10
38.04000000000003
 20
61.96
 11
38.04000000000003
 21
100
  0
LINE
  5
651
100
AcDbEntity
  8
cross90-rails
  6
ByLayer
 62
  256
370
   -1
100
AcDbLine
 10
36.54000000000003
 20
63.46
 11
36.54000000000003
 21
100
  0
LINE
  5
652
100
AcDbEntity
  8
cross90-rails
  6
ByLayer
 62
  256
370
   -1
100
AcDbLine
 10
7.292693891875121e-16
 20
63.46
 11
36.54000000000003
 21
63.46
  0
LINE
  5
653
100
AcDbEntity
  8
cross90-rails
  6
ByLayer
 62
  256
370
   -1
100
AcDbLine
 10
61.96000000000003
 20
61.95999999999999
 11
100
 21
61.96
  0
LINE
  5
654
100
AcDbEntity
  8
cross90-rails
  6
ByLayer
 62
  256
370
   -1
100
AcDbLine
 10
61.96000000000003
 20
61.95999999999999
 11
61.96000000000004
 21
100
  0
LINE
  5
655
100
AcDbEntity
  8
cross90-rails
  6
ByLayer
 62
  256
370
   -1
100
AcDbLine
 10
63.46000000000003
 20
63.46
 11
63.46000000000004
 21
100
  0
LINE
  5
656
100
AcDbEntity
  8
cross90-rails
  6
ByLayer
 62
  256
370
   -1
100
AcDbLine
 10
63.46000000000003
 20
63.46
 11
100
 21
63.46
  0
LINE
  5
657
100
AcDbEntity
  8
cross90-rails
  6
ByLayer
 62
  256
370
   -1
100
AcDbLine
 10
63.46000000000002
 20
0
 11
63.46000000000002
 21
36.54
  0
LINE
  5
658
100
AcDbEntity
  8
cross90-rails
  6
ByLayer
 62
  256
370
   -1
100
AcDbLine
 10
63.46000000000002
 20
36.54
 11
100
 21
36.54
  0
LINE
  5
659
100
AcDbEntity
  8
cross90-rails
  6
ByLayer
 62
  256
370
   -1
100
AcDbLine
 10
61.96000000000002
 20
38.04
 11
100
 21
38.04
  0
LINE
  5
65A
100
AcDbEntity
  8
cross90-rails
  6
ByLayer
 62
  256
370
   -1
100
AcDbLine
 10
61.96000000000002
 20
0
 11
61.96000000000002
 21
38.04
  0
LINE
  5
65B
100
AcDbEntity
  8
cross90-rails
  6
ByLayer
 62
  256
370
   -1
100
AcDbLine
 10
-1.554312234475219e-15
 20
38.04
 11
38.04000000000003
 21
38.04
  0
LINE
  5
65C
100
AcDbEntity
  8
cross90-rails
  6
ByLayer
 62
  256
370
   -1
100
AcDbLine
 10
38.04000000000002
 20
0
 11
38.04000000000003
 21
38.04
  0
LINE
  5
65D
100
AcDbEntity
  8
cross90-rails
  6
ByLayer
 62
  256
370
   -1
100
AcDbLine
 10
36.54000000000002
 20
0
 11
36.54000000000003
 21
36.54
  0
LINE
  5
65E
100
AcDbEntity
  8
cross90-rails
  6
ByLayer
 62
  256
370
   -1
100
AcDbLine
 10
-2.664535259100376e-15
 20
36.54
 11
36.54000000000003
 21
36.54
  0
LINE
  5
65F
100
AcDbEntity
  8
cross90-rails
  6
ByLayer
 62
  256
370
   -1
100
AcDbLine
 10
36.54000000000003
 20
59.96
 11
38.04000000000003
 21
59.96
  0
LINE
  5
660
100
AcDbEntity
  8
cross90-rails
  6
ByLayer
 62
  256
370
   -1
100
AcDbLine
 10
38.04000000000003
 20
40.04
 11
38.04000000000003
 21
59.96
  0
LINE
  5
661
100
AcDbEntity
  8
cross90-rails
  6
ByLayer
 62
  256
370
   -1
100
AcDbLine
 10
36.54000000000003
 20
40.04
 11
38.04000000000003
 21
40.04
  0
ARC
  5
662
100
AcDbEntity
  8
cross90-rails
  6
ByLayer
 62
  256
370
   -1
100
AcDbCircle
 10
38.04000000000003
 20
40.04
 40
19.97639607136383
100
AcDbArc
 50
94.30631417578265
 51
122.1131835657154
  0
LINE
  5
663
100
AcDbEntity
  8
cross90-rails
  6
ByLayer
 62
  256
370
   -1
100
AcDbLine
 10
27.42067798774315
 20
56.9599999999999
 11
30.61768150872583
 21
56.95999999999994
  0
ARC
  5
664
100
AcDbEntity
  8
cross90-rails
  6
ByLayer
 62
  256
370
   -1
100
AcDbCircle
 10
38.04000000000003
 20
40.04
 40
18.47639607136383
100
AcDbArc
 50
94.65666347745007
 51
113.6856826177086
  0
ARC
  5
665
100
AcDbEntity
  8
cross90-rails
  6
ByLayer
 62
  256
370
   -1
100
AcDbCircle
 10
38.04000000000003
 20
59.96
 40
19.97639607136383
100
AcDbArc
 50
237.8868164342846
 51
265.6936858242174
  0
LINE
  5
666
100
AcDbEntity
  8
cross90-rails
  6
ByLayer
 62
  256
370
   -1
100
AcDbLine
 10
36.54000000000002
 20
41.54459308660513
 11
36.54000000000003
 21
58.45540691339478
  0
LINE
  5
667
100
AcDbEntity
  8
cross90-rails
  6
ByLayer
 62
  256
370
   -1
100
AcDbLine
 10
27.42067798774315
 20
43.0400000000001
 11
30.61768150872585
 21
43.04000000000006
  0
ARC
  5
668
100
AcDbEntity
  8
cross90-rails
  6
ByLayer
 62
  256
370
   -1
100
AcDbCircle
 10
38.04000000000003
 20
59.96
 40
18.47639607136383
100
AcDbArc
 50
246.3143173822914
 51
265.3433365225499
  0
LINE
  5
669
100
AcDbEntity
  8
cross90-rails
  6
ByLayer
 62
  256
370
   -1
100
AcDbLine
 10
40.04000000000003
 20
63.46
 11
40.04000000000003
 21
61.96
  0
LINE
  5
66A
100
AcDbEntity
  8
cross90-rails
  6
ByLayer
 62
  256
370
   -1
100
AcDbLine
 10
59.96000000000003
 20
61.96
 11
40.04000000000003
 21
61.96
  0
LINE
  5
66B
100
AcDbEntity
  8
cross90-rails
  6
ByLayer
 62
  256
370
   -1
100
AcDbLine
 10
59.96000000000004
 20
63.46
 11
59.96000000000003
 21
61.96
  0
ARC
  5
66C
100
AcDbEntity
  8
cross90-rails
  6
ByLayer
 62
  256
370
   -1
100
AcDbCircle
 10
59.96000000000003
 20
61.96
 40
19.97639607136383
100
AcDbArc
 50
147.8868164342845
 51
175.6936858242173
  0
LINE
  5
66D
100
AcDbEntity
  8
cross90-rails
  6
ByLayer
 62
  256
370
   -1
100
AcDbLine
 10
43.04000000000014
 20
72.57932201225688
 11
43.04000000000011
 21
69.38231849127421
  0
ARC
  5
66E
100
AcDbEntity
  8
cross90-rails
  6
ByLayer
 62
  256
370
   -1
100
AcDbCircle
 10
59.96000000000003
 20
61.96
 40
18.47639607136383
100
AcDbArc
 50
156.3143173822913
 51
175.3433365225498
  0
ARC
  5
66F
100
AcDbEntity
  8
cross90-rails
  6
ByLayer
 62
  256
370
   -1
100
AcDbCircle
 10
40.04000000000003
 20
61.96
 40
19.97639607136383
100
AcDbArc
 50
4.306314175782557
 51
32.11318356571527
  0
LINE
  5
670
100
AcDbEntity
  8
cross90-rails
  6
ByLayer
 62
  256
370
   -1
100
AcDbLine
 10
58.45540691339491
 20
63.46000000000001
 11
41.54459308660525
 21
63.46000000000001
  0
LINE
  5
671
100
AcDbEntity
  8
cross90-rails
  6
ByLayer
 62
  256
370
   -1
100
AcDbLine
 10
56.95999999999994
 20
72.57932201225688
 11
56.95999999999998
 21
69.38231849127418
  0
ARC
  5
672
100
AcDbEntity
  8
cross90-rails
  6
ByLayer
 62
  256
370
   -1
100
AcDbCircle
 10
40.04000000000003
 20
61.96
 40
18.47639607136383
100
AcDbArc
 50
4.656663477449985
 51
23.68568261770848
  0
LINE
  5
673
100
AcDbEntity
  8
cross90-rails
  6
ByLayer
 62
  256
370
   -1
100
AcDbLine
 10
59.96000000000003
 20
36.53999999999998
 11
59.96000000000003
 21
38.03999999999998
  0
LINE
  5
674
100
AcDbEntity
  8
cross90-rails
  6
ByLayer
 62
  256
370
   -1
100
AcDbLine
 10
40.04000000000003
 20
38.03999999999998
 11
59.96000000000003
 21
38.03999999999998
  0
LINE
  5
675
100
AcDbEntity
  8
cross90-rails
  6
ByLayer
 62
  256
370
   -1
100
AcDbLine
 10
40.04000000000001
 20
36.53999999999998
 11
40.04000000000003
 21
38.03999999999998
  0
ARC
  5
676
100
AcDbEntity
  8
cross90-rails
  6
ByLayer
 62
  256
370
   -1
100
AcDbCircle
 10
40.04000000000003
 20
38.03999999999998
 40
19.97639607136383
100
AcDbArc
 50
327.8868164342845
 51
355.6936858242173
  0
LINE
  5
677
100
AcDbEntity
  8
cross90-rails
  6
ByLayer
 62
  256
370
   -1
100
AcDbLine
 10
56.95999999999992
 20
27.42067798774311
 11
56.95999999999997
 21
30.61768150872578
  0
ARC
  5
678
100
AcDbEntity
  8
cross90-rails
  6
ByLayer
 62
  256
370
   -1
100
AcDbCircle
 10
40.04000000000003
 20
38.03999999999998
 40
18.47639607136383
100
AcDbArc
 50
336.3143173822913
 51
355.3433365225498
  0
ARC
  5
679
100
AcDbEntity
  8
cross90-rails
  6
ByLayer
 62
  256
370
   -1
100
AcDbCircle
 10
59.96000000000003
 20
38.03999999999998
 40
19.97639607136383
100
AcDbArc
 50
184.3063141757825
 51
212.1131835657153
  0
LINE
  5
67A
100
AcDbEntity
  8
cross90-rails
  6
ByLayer
 62
  256
370
   -1
100
AcDbLine
 10
41.54459308660515
 20
36.53999999999998
 11
58.4554069133948
 21
36.53999999999998
  0
LINE
  5
67B
100
AcDbEntity
  8
cross90-rails
  6
ByLayer
 62
  256
370
   -1
100
AcDbLine
 10
43.04000000000013
 20
27.42067798774313
 11
43.04000000000008
 21
30.61768150872582
  0
ARC
  5
67C
100
AcDbEntity
  8
cross90-rails
  6
ByLayer
 62
  256
370
   -1
100
AcDbCircle
 10
59.96000000000003
 20
38.03999999999998
 40
18.47639607136383
100
AcDbArc
 50
184.65666347745
 51
203.6856826177085
  0
LINE
  5
67D
100
AcDbEntity
  8
cross90-rails
  6
ByLayer
 62
  256
370
   -1
100
AcDbLine
 10
63.46000000000003
 20
40.03999999999998
 11
61.96000000000003
 21
40.03999999999998
  0
LINE
  5
67E
100
AcDbEntity
  8
cross90-rails
  6
ByLayer
 62
  256
370
   -1
100
AcDbLine
 10
61.96000000000004
 20
59.95999999999999
 11
61.96000000000003
 21
40.03999999999998
  0
LINE
  5
67F
100
AcDbEntity
  8
cross90-rails
  6
ByLayer
 62
  256
370
   -1
100
AcDbLine
 10
63.46000000000004
 20
59.96
 11
61.96000000000004
 21
59.95999999999999
  0
ARC
  5
680
100
AcDbEntity
  8
cross90-rails
  6
ByLayer
 62
  256
370
   -1
100
AcDbCircle
 10
61.96000000000004
 20
59.95999999999999
 40
19.97639607136383
100
AcDbArc
 50
274.3063141757826
 51
302.1131835657154
  0
LINE
  5
681
100
AcDbEntity
  8
cross90-rails
  6
ByLayer
 62
  256
370
   -1
100
AcDbLine
 10
72.57932201225691
 20
43.04000000000009
 11
69.38231849127423
 21
43.04000000000006
  0
ARC
  5
682
100
AcDbEntity
  8
cross90-rails
  6
ByLayer
 62
  256
370
   -1
100
AcDbCircle
 10
61.96000000000004
 20
59.95999999999999
 40
18.47639607136383
100
AcDbArc
 50
274.6566634774501
 51
293.6856826177086
  0
ARC
  5
683
100
AcDbEntity
  8
cross90-rails
  6
ByLayer
 62
  256
370
   -1
100
AcDbCircle
 10
61.96000000000003
 20
40.03999999999998
 40
19.97639607136383
100
AcDbArc
 50
57.88681643428463
 51
85.69368582421734
  0
LINE
  5
684
100
AcDbEntity
  8
cross90-rails
  6
ByLayer
 62
  256
370
   -1
100
AcDbLine
 10
63.46000000000005
 20
58.45540691339487
 11
63.46000000000004
 21
41.5445930866052
  0
LINE
  5
685
100
AcDbEntity
  8
cross90-rails
  6
ByLayer
 62
  256
370
   -1
100
AcDbLine
 10
72.57932201225691
 20
56.95999999999989
 11
69.38231849127422
 21
56.95999999999994
  0
ARC
  5
686
100
AcDbEntity
  8
cross90-rails
  6
ByLayer
 62
  256
370
   -1
100
AcDbCircle
 10
61.96000000000003
 20
40.03999999999998
 40
18.47639607136383
100
AcDbArc
 50
66.31431738229142
 51
85.34333652254992
  0
LINE
  5
687
100
AcDbEntity
  8
traverses
  6
ByLayer
 62
  256
370
   -1
100
AcDbLine
 10
98
 20
72.75
 11
98
 21
27.25
  0
LINE
  5
688
100
AcDbEntity
  8
traverses
  6
ByLayer
 62
  256
370
   -1
100
AcDbLine
 10
92.00000000000001
 20
72.75
 11
92.00000000000001
 21
27.25
  0
LINE
  5
689
100
AcDbEntity
  8
traverses
  6
ByLayer
 62
  256
370
   -1
100
AcDbLine
 10
88.00000000000001
 20
72.75
 11
88.00000000000001
 21
27.25
  0
LINE
  5
68A
100
AcDbEntity
  8
traverses
  6
ByLayer
 62
  256
370
   -1
100
AcDbLine
 10
2.000000000000002
 20
72.75
 11
2
 21
52
  0
LINE
  5
68B
100
AcDbEntity
  8
traverses
  6
ByLayer
 62
  256
370
   -1
100
AcDbLine
 10
1.999999999999998
 20
48
 11
1.999999999999996
 21
27.25
  0
LINE
  5
68C
100
AcDbEntity
  8
traverses
  6
ByLayer
 62
  256
370
   -1
100
AcDbLine
 10
78.00000000000001
 20
27.25
 11
82.00000000000001
 21
27.25
  0
LINE
  5
68D
100
AcDbEntity
  8
traverses
  6
ByLayer
 62
  256
370
   -1
100
AcDbLine
 10
78.00000000000001
 20
72.75
 11
82.00000000000001
 21
72.75
  0
LINE
  5
68E
100
AcDbEntity
  8
traverses
  6
ByLayer
 62
  256
370
   -1
100
AcDbLine
 10
82.00000000000001
 20
72.75
 11
82.00000000000001
 21
27.25
  0
LINE
  5
68F
100
AcDbEntity
  8
traverses
  6
ByLayer
 62
  256
370
   -1
100
AcDbLine
 10
78.00000000000001
 20
72.75
 11
78.00000000000001
 21
27.25
  0
LINE
  5
690
100
AcDbEntity
  8
traverses
  6
ByLayer
 62
  256
370
   -1
100
AcDbLine
 10
68.00000000000001
 20
27.25
 11
72.00000000000001
 21
27.25
  0
LINE
  5
691
100
AcDbEntity
  8
traverses
  6
ByLayer
 62
  256
370
   -1
100
AcDbLine
 10
68.00000000000001
 20
72.75
 11
72.00000000000001
 21
72.75
  0
LINE
  5
692
100
AcDbEntity
  8
traverses
  6
ByLayer
 62
  256
370
   -1
100
AcDbLine
 10
72.00000000000001
 20
72.75
 11
72.00000000000001
 21
27.25
  0
LINE
  5
693
100
AcDbEntity
  8
traverses
  6
ByLayer
 62
  256
370
   -1
100
AcDbLine
 10
68.00000000000001
 20
72.75
 11
68.00000000000001
 21
27.25
  0
LINE
  5
694
100
AcDbEntity
  8
traverses
  6
ByLayer
 62
  256
370
   -1
100
AcDbLine
 10
58.00000000000001
 20
27.25
 11
62.00000000000001
 21
27.25
  0
LINE
  5
695
100
AcDbEntity
  8
traverses
  6
ByLayer
 62
  256
370
   -1
100
AcDbLine
 10
58.00000000000001
 20
72.75
 11
62.00000000000001
 21
72.75
  0
LINE
  5
696
100
AcDbEntity
  8
traverses
  6
ByLayer
 62
  256
370
   -1
100
AcDbLine
 10
62.00000000000001
 20
72.75
 11
62.00000000000001
 21
27.25
  0
LINE
  5
697
100
AcDbEntity
  8
traverses
  6
ByLayer
 62
  256
370
   -1
100
AcDbLine
 10
58.00000000000001
 20
72.75
 11
58.00000000000001
 21
27.25
  0
LINE
  5
698
100
AcDbEntity
  8
traverses
  6
ByLayer
 62
  256
370
   -1
100
AcDbLine
 10
48.00000000000001
 20
27.25
 11
52.00000000000001
 21
27.25
  0
LINE
  5
699
100
AcDbEntity
  8
traverses
  6
ByLayer
 62
  256
370
   -1
100
AcDbLine
 10
48.00000000000001
 20
72.75
 11
52.00000000000001
 21
72.75
  0
LINE
  5
69A
100
AcDbEntity
  8
traverses
  6
ByLayer
 62
  256
370
   -1
100
AcDbLine
 10
52.00000000000001
 20
72.75
 11
52.00000000000001
 21
27.25
  0
LINE
  5
69B
100
AcDbEntity
  8
traverses
  6
ByLayer
 62
  256
370
   -1
100
AcDbLine
 10
48.00000000000001
 20
72.75
 11
48.00000000000001
 21
27.25
  0
LINE
  5
69C
100
AcDbEntity
  8
traverses
  6
ByLayer
 62
  256
370
   -1
100
AcDbLine
 10
38.00000000000001
 20
27.25
 11
42.00000000000001
 21
27.25
  0
LINE
  5
69D
100
AcDbEntity
  8
traverses
  6
ByLayer
 62
  256
370
   -1
100
AcDbLine
 10
38.00000000000001
 20
72.75
 11
42.00000000000001
 21
72.75
  0
LINE
  5
69E
100
AcDbEntity
  8
traverses
  6
ByLayer
 62
  256
370
   -1
100
AcDbLine
 10
42.00000000000001
 20
72.75
 11
42.00000000000001
 21
27.25
  0
LINE
  5
69F
100
AcDbEntity
  8
traverses
  6
ByLayer
 62
  256
370
   -1
100
AcDbLine
 10
38.00000000000001
 20
72.75
 11
38.00000000000001
 21
27.25
  0
LINE
  5
6A0
100
AcDbEntity
  8
traverses
  6
ByLayer
 62
  256
370
   -1
100
AcDbLine
 10
28.00000000000001
 20
27.25
 11
32.00000000000001
 21
27.25
  0
LINE
  5
6A1
100
AcDbEntity
  8
traverses
  6
ByLayer
 62
  256
370
   -1
100
AcDbLine
 10
28.00000000000001
 20
72.75
 11
32.00000000000001
 21
72.75
  0
LINE
  5
6A2
100
AcDbEntity
  8
traverses
  6
ByLayer
 62
  256
370
   -1
100
AcDbLine
 10
32.00000000000001
 20
72.75
 11
32.00000000000001
 21
27.25
  0
LINE
  5
6A3
100
AcDbEntity
  8
traverses
  6
ByLayer
 62
  256
370
   -1
100
AcDbLine
 10
28.00000000000001
 20
72.75
 11
28.00000000000001
 21
27.25
  0
LINE
  5
6A4
100
AcDbEntity
  8
traverses
  6
ByLayer
 62
  256
370
   -1
100
AcDbLine
 10
18.00000000000001
 20
27.25
 11
22.00000000000001
 21
27.25
  0
LINE
  5
6A5
100
AcDbEntity
  8
traverses
  6
ByLayer
 62
  256
370
   -1
100
AcDbLine
 10
18.00000000000001
 20
72.75
 11
22.00000000000001
 21
72.75
  0
LINE
  5
6A6
100
AcDbEntity
  8
traverses
  6
ByLayer
 62
  256
370
   -1
100
AcDbLine
 10
22.00000000000001
 20
72.75
 11
22.00000000000001
 21
27.25
  0
LINE
  5
6A7
100
AcDbEntity
  8
traverses
  6
ByLayer
 62
  256
370
   -1
100
AcDbLine
 10
18.00000000000001
 20
72.75
 11
18.00000000000001
 21
27.25
  0
LINE
  5
6A8
100
AcDbEntity
  8
traverses
  6
ByLayer
 62
  256
370
   -1
100
AcDbLine
 10
8.000000000000014
 20
27.25
 11
12.00000000000001
 21
27.25
  0
LINE
  5
6A9
100
AcDbEntity
  8
traverses
  6
ByLayer
 62
  256
370
   -1
100
AcDbLine
 10
8.000000000000014
 20
72.75
 11
12.00000000000001
 21
72.75
  0
LINE
  5
6AA
100
AcDbEntity
  8
traverses
  6
ByLayer
 62
  256
370
   -1
100
AcDbLine
 10
12.00000000000001
 20
72.75
 11
12.00000000000001
 21
27.25
  0
LINE
  5
6AB
100
AcDbEntity
  8
traverses
  6
ByLayer
 62
  256
370
   -1
100
AcDbLine
 10
8.000000000000014
 20
72.75
 11
8.000000000000014
 21
27.25
  0
LINE
  5
6AC
100
AcDbEntity
  8
cotes2
  6
ByLayer
 62
  256
370
   -1
100
AcDbLine
 10
100
 20
72.9604426089677
 11
100
 21
50.19288965074951
  0
LINE
  5
6AD
100
AcDbEntity
  8
cotes2
  6
ByLayer
 62
  256
370
   -1
100
AcDbLine
 10
100
 20
50.19288965074951
 11
100
 21
-199.9999999999997
  0
LINE
  5
6AE
100
AcDbEntity
  8
cotes2
  6
ByLayer
 62
  256
370
   -1
100
AcDbLine
 10
204.3769061775782
 20
51.98814249245345
 11
100
 21
-199.9999999999997
  0
DIMENSION
  5
6AF
100
AcDbEntity
  8
cotes2
  6
ByLayer
 62
  256
370
   -1
100
AcDbDimension
  2
*D9
 10
100
 20
50.19288965074951
 30
0
 11
0
 21
0
 31
0
 70
   34
 71
    5
  3
Standard
 53
0
210
0
220
0
230
1
100
AcDb2LineAngularDimension
 13
100
 23
-199.9999999999997
 33
0
 14
204.3769061775782
 24
51.98814249245345
 34
0
 15
100
 25
-199.9999999999997
 35
0
 16
100
 26
-74.90355517462508
 36
0
  0
DIMENSION
  5
6B0
100
AcDbEntity
  8
cotes2
  6
ByLayer
 62
  256
370
   -1
100
AcDbDimension
  2
*D10
 10
52.67203880216771
 20
-199.9999999999997
 30
0
 11
47.04703880216772
 21
-74.9035551746251
 31
0
 70
   32
 71
    5
  3
Standard
 53
0
210
0
220
0
230
1
100
AcDbAlignedDimension
 13
100
 23
50.19288965074951
 33
0
 14
100
 24
-199.9999999999997
 34
0
 50
90
100
AcDbRotatedDimension
  0
LINE
  5
6B1
100
AcDbEntity
  8
courbes-traverses
  6
ByLayer
 62
  256
370
   -1
100
AcDbLine
 10
108.7096566758045
 20
72.61823926617529
 11
112.7065728207674
 21
72.46120000313901
  0
LINE
  5
6B2
100
AcDbEntity
  8
courbes-traverses
  6
ByLayer
 62
  256
370
   -1
100
AcDbLine
 10
112.7065728207674
 20
72.46120000313901
 11
110.9202512037298
 21
26.99627885418615
  0
LINE
  5
6B3
100
AcDbEntity
  8
courbes-traverses
  6
ByLayer
 62
  256
370
   -1
100
AcDbLine
 10
106.9233350587669
 20
27.15331811722243
 11
108.7096566758045
 21
72.61823926617529
  0
LINE
  5
6B4
100
AcDbEntity
  8
courbes-traverses
  6
ByLayer
 62
  256
370
   -1
100
AcDbLine
 10
110.9202512037298
 20
26.99627885418615
 11
106.9233350587669
 21
27.15331811722243
  0
LINE
  5
6B5
100
AcDbEntity
  8
courbes-traverses
  6
ByLayer
 62
  256
370
   -1
100
AcDbLine
 10
119.823664171619
 20
26.39254589939762
 11
115.8359948366865
 21
26.70638228230902
  0
LINE
  5
6B6
100
AcDbEntity
  8
courbes-traverses
  6
ByLayer
 62
  256
370
   -1
100
AcDbLine
 10
123.393553027236
 20
71.75228458425494
 11
119.823664171619
 21
26.39254589939762
  0
LINE
  5
6B7
100
AcDbEntity
  8
courbes-traverses
  6
ByLayer
 62
  256
370
   -1
100
AcDbLine
 10
115.8359948366865
 20
26.70638228230902
 11
119.4058836923034
 21
72.0661209671663
  0
LINE
  5
6B8
100
AcDbEntity
  8
courbes-traverses
  6
ByLayer
 62
  256
370
   -1
100
AcDbLine
 10
119.4058836923034
 20
72.0661209671663
 11
123.393553027236
 21
71.75228458425494
  0
LINE
  5
6B9
100
AcDbEntity
  8
cotes2
  6
ByLayer
 62
  256
370
   -1
100
AcDbLine
 10
100
 20
52
 11
100
 21
48
  0
LINE
  5
6BA
100
AcDbEntity
  8
cotes2
  6
ByLayer
 62
  256
370
   -1
100
AcDbLine
 10
196.3979566127661
 20
32.72525423959315
 11
194.9437595697787
 21
29.21451201605026
  0
DIMENSION
  5
6BB
100
AcDbEntity
  8
cotes2
  6
ByLayer
 62
  256
370
   -1
100
AcDbDimension
  2
*D11
 10
195.6708580912724
 20
64.74700506075447
 30
0
 11
147.8354290456362
 21
70.37200506075447
 31
0
 70
   32
 71
    5
  3
Standard
 53
0
210
0
220
0
230
1
100
AcDbAlignedDimension
 13
100
 23
50.19288965074951
 33
0
 14
195.6708580912724
 24
30.96988312782171
 34
0
100
AcDbRotatedDimension
  0
DIMENSION
  5
6BC
100
AcDbEntity
  8
cotes2
  6
ByLayer
 62
  256
370
   -1
100
AcDbDimension
  2
*D12
 10
100
 20
50.19288965074951
 30
0
 11
94.375
 21
40.5813863892856
 31
0
 70
   32
 71
    5
  3
Standard
 53
0
210
0
220
0
230
1
100
AcDbAlignedDimension
 13
195.6708580912724
 23
30.96988312782171
 33
0
 14
100
 24
50.19288965074951
 34
0
 50
90
100
AcDbRotatedDimension
  0
ENDSEC
  0
SECTION
  2
OBJECTS
  0
DICTIONARY
  5
C
330
0
100
AcDbDictionary
281
    1
  3
ACAD_GROUP
350
D
  0
DICTIONARY
  5
D
330
C
100
AcDbDictionary
281
    1
  0
ENDSEC
  0
EOF
